a b c d e f g h i j k l m n o p q r s t u v w x y z 0-9

Tikli and Laxmi Bomb (2017) Hindi - 1080p - WEB-DL - AVC - AAC - Esubs-Team Jio Exclu

  • Views: 29
  • Author: stev
  • Date: 2-08-2018, 04:26
  • Category: Bollywood BluRay - Full HD
  • Rating:
    Description of the movie:
    Tikli and Laxmi Bomb (2017) Hindi - 1080p - WEB-DL - AVC - AAC - Esubs-Team Jio Exclu





    Format                      : MPEG-4
    Format profile              : Base Media
    Codec ID                    : isom (isom/iso2/avc1/mp41)
    File size                   : 3.56 GiB
    Duration                    : 2 h 30 min
    Overall bit rate            : 3 376 kb/s
    Writing application         : Lavf58.12.100
    
    Video
    ID                          : 1
    Format                      : AVC
    Format/Info                 : Advanced Video Codec
    Format profile              : Main@L4
    Format settings, CABAC      : Yes
    Format settings, RefFrames  : 3 frames
    Codec ID                    : avc1
    Codec ID/Info               : Advanced Video Coding
    Duration                    : 2 h 30 min
    Bit rate                    : 3 276 kb/s
    Width                       : 1 920 pixels
    Height                      : 1 080 pixels
    Display aspect ratio        : 16:9
    Frame rate mode             : Constant
    Frame rate                  : 24.000 FPS
    Color space                 : YUV
    Chroma subsampling          : 4:2:0
    Bit depth                   : 8 bits
    Scan type                   : Progressive
    Bits/(Pixel*Frame)          : 0.066
    Stream size                 : 3.45 GiB (97%)
    
    Audio
    ID                          : 2
    Format                      : AAC
    Format/Info                 : Advanced Audio Codec
    Format profile              : HE-AAC / LC
    Codec ID                    : 40
    Duration                    : 2 h 30 min
    Bit rate mode               : Constant
    Bit rate                    : 96.0 kb/s
    Channel(s)                  : 2 channels
    Channel positions           : Front: L R
    Sampling rate               : 48.0 kHz / 24.0 kHz
    Frame rate                  : 23.438 FPS (1024 SPF)
    Compression mode            : Lossy
    Stream size                 : 102 MiB (3%)
    Default                     : Yes
    Alternate group             : 1
    
    


    Tikli and Laxmi Bomb (2017) Hindi - 1080p - WEB-DL - AVC - AAC - Esubs-Team Jio ExcluTikli and Laxmi Bomb (2017) Hindi - 1080p - WEB-DL - AVC - AAC - Esubs-Team Jio ExcluTikli and Laxmi Bomb (2017) Hindi - 1080p - WEB-DL - AVC - AAC - Esubs-Team Jio ExcluTikli and Laxmi Bomb (2017) Hindi - 1080p - WEB-DL - AVC - AAC - Esubs-Team Jio ExcluTikli and Laxmi Bomb (2017) Hindi - 1080p - WEB-DL - AVC - AAC - Esubs-Team Jio ExcluTikli and Laxmi Bomb (2017) Hindi - 1080p - WEB-DL - AVC - AAC - Esubs-Team Jio Exclu

    SINGLE DIRECT FAST LINKS
    http://www.heroupload.us/53d264ab1948fcc9/Tikli.and.Laxmi.Bomb..2017.Hindi.1080p.WEB-DL.AVC.AAC.ESUBS-Team.Jio.Exclusive.mp4


    http://filefloater.com/1K2K/Tikli.and.Laxmi.Bomb..2017.Hindi.1080p.WEB-DL.AVC.AAC.ESUBS-Team.Jio.Exclusive.mp4

    1GB LINKS
    
    http://www.heroupload.us/cb987c7b3ca0b4f7/Tikli.and.Laxmi.Bomb..2017.Hindi.1080p.WEB-DL.AVC.AAC.ESUBS-Team.Jio.Exclusive.part1.rar
    http://www.heroupload.us/a3dbe1fbb4d455df/Tikli.and.Laxmi.Bomb..2017.Hindi.1080p.WEB-DL.AVC.AAC.ESUBS-Team.Jio.Exclusive.part2.rar
    http://www.heroupload.us/3a1805f0a8d77e6e/Tikli.and.Laxmi.Bomb..2017.Hindi.1080p.WEB-DL.AVC.AAC.ESUBS-Team.Jio.Exclusive.part3.rar
    http://www.heroupload.us/3297d4bf138c8341/Tikli.and.Laxmi.Bomb..2017.Hindi.1080p.WEB-DL.AVC.AAC.ESUBS-Team.Jio.Exclusive.part4.rar
    http://www.heroupload.us/0a88d84ade972879/Tikli.and.Laxmi.Bomb..2017.Hindi.1080p.WEB-DL.AVC.AAC.ESUBS-Team.Jio.Exclusive.srt


    
    http://filefloater.com/1K2L/Tikli.and.Laxmi.Bomb..2017.Hindi.1080p.WEB-DL.AVC.AAC.ESUBS-Team.Jio.Exclusive.part1.rar
    http://filefloater.com/1K2M/Tikli.and.Laxmi.Bomb..2017.Hindi.1080p.WEB-DL.AVC.AAC.ESUBS-Team.Jio.Exclusive.part2.rar
    http://filefloater.com/1K2N/Tikli.and.Laxmi.Bomb..2017.Hindi.1080p.WEB-DL.AVC.AAC.ESUBS-Team.Jio.Exclusive.part3.rar
    http://filefloater.com/U10/Tikli.and.Laxmi.Bomb..2017.Hindi.1080p.WEB-DL.AVC.AAC.ESUBS-Team.Jio.Exclusive.part4.rar
    http://filefloater.com/U11/Tikli.and.Laxmi.Bomb..2017.Hindi.1080p.WEB-DL.AVC.AAC.ESUBS-Team.Jio.Exclusive.srt


    Buy Premium From My Links & Support Me

    Comments

    Add Comment!


    Add comment

    Name:*
    E-Mail:
    Comment:
    • winkwinkedsmileam
      belayfeelfellowlaughing
      lollovenorecourse
      requestsadtonguewassat
      cryingwhatbullyangry
    Security Code: *
    reload, if the code cannot be seen