a b c d e f g h i j k l m n o p q r s t u v w x y z 0-9

Brij Mohan Amar Rahe (2018) 1080p - WEB-DL - x264 - DD5.1 - Esubs-Team Jio Exclusive

  • Views: 22
  • Author: stev
  • Date: 3-08-2018, 18:44
  • Category: Bollywood BluRay - Full HD
  • Rating:
    Description of the movie:
    Brij Mohan Amar Rahe (2018) 1080p - WEB-DL - x264 - DD5.1 - Esubs-Team Jio Exclusive





    Format                      : Matroska
    Format version              : Version 4 / Version 2
    File size                   : 3.57 GiB
    Duration                    : 1 h 40 min
    Overall bit rate            : 5 113 kb/s
    Encoded date                : UTC 2018-08-03 08:44:09
    Writing application         : mkvmerge v25.0.0 ('Prog Noir') 64-bit
    Writing library             : libebml v1.3.6 + libmatroska v1.4.9
    
    Video
    ID                          : 1
    Format                      : AVC
    Format/Info                 : Advanced Video Codec
    Format profile              : Main@L4
    Format settings, CABAC      : Yes
    Format settings, RefFrames  : 3 frames
    Codec ID                    : V_MPEG4/ISO/AVC
    Duration                    : 1 h 40 min
    Bit rate                    : 4 151 kb/s
    Width                       : 1 920 pixels
    Height                      : 1 080 pixels
    Display aspect ratio        : 16:9
    Frame rate mode             : Constant
    Frame rate                  : 24.000 FPS
    Color space                 : YUV
    Chroma subsampling          : 4:2:0
    Bit depth                   : 8 bits
    Scan type                   : Progressive
    Bits/(Pixel*Frame)          : 0.083
    Stream size                 : 2.90 GiB (81%)
    Default                     : Yes
    Forced                      : No
    
    Audio #1
    ID                          : 2
    Format                      : E-AC-3
    Format/Info                 : Enhanced Audio Coding 3
    Format settings, Endianness : Big
    Codec ID                    : A_EAC3
    Duration                    : 1 h 40 min
    Bit rate mode               : Constant
    Bit rate                    : 192 kb/s
    Channel(s)                  : 6 channels
    Channel positions           : Front: L C R, Side: L R, LFE
    Sampling rate               : 48.0 kHz
    Frame rate                  : 187.500 FPS (256 SPF)
    Compression mode            : Lossy
    Delay relative to video     : -41 ms
    Stream size                 : 137 MiB (4%)
    Service kind                : Complete Main
    Default                     : Yes
    Forced                      : No
    
    Audio #2
    ID                          : 3
    Format                      : AC-3
    Format/Info                 : Audio Coding 3
    Format settings, Endianness : Big
    Codec ID                    : A_AC3
    Duration                    : 1 h 40 min
    Bit rate mode               : Constant
    Bit rate                    : 384 kb/s
    Channel(s)                  : 6 channels
    Channel positions           : Front: L C R, Side: L R, LFE
    Sampling rate               : 48.0 kHz
    Frame rate                  : 31.250 FPS (1536 SPF)
    Bit depth                   : 16 bits
    Compression mode            : Lossy
    Delay relative to video     : -41 ms
    Stream size                 : 275 MiB (8%)
    Language                    : Hindi
    Service kind                : Complete Main
    Default                     : No
    Forced                      : No
    
    Audio #3
    ID                          : 4
    Format                      : AC-3
    Format/Info                 : Audio Coding 3
    Format settings, Endianness : Big
    Codec ID                    : A_AC3
    Duration                    : 1 h 40 min
    Bit rate mode               : Constant
    Bit rate                    : 384 kb/s
    Channel(s)                  : 6 channels
    Channel positions           : Front: L C R, Side: L R, LFE
    Sampling rate               : 48.0 kHz
    Frame rate                  : 31.250 FPS (1536 SPF)
    Bit depth                   : 16 bits
    Compression mode            : Lossy
    Delay relative to video     : -41 ms
    Stream size                 : 275 MiB (8%)
    Title                       : Audio Description
    Language                    : Hindi
    Service kind                : Complete Main
    Default                     : No
    Forced                      : No
    
    Text #1
    ID                          : 5
    Format                      : UTF-8
    Codec ID                    : S_TEXT/UTF8
    Codec ID/Info               : UTF-8 Plain Text
    Duration                    : 1 h 35 min
    Bit rate                    : 57 b/s
    Count of elements           : 996
    Stream size                 : 40.1 KiB (0%)
    Language                    : English
    Default                     : Yes
    Forced                      : No
    
    Text #2
    ID                          : 6
    Format                      : UTF-8
    Codec ID                    : S_TEXT/UTF8
    Codec ID/Info               : UTF-8 Plain Text
    Duration                    : 1 h 39 min
    Bit rate                    : 55 b/s
    Count of elements           : 1056
    Stream size                 : 40.3 KiB (0%)
    Language                    : Portuguese
    Default                     : No
    Forced                      : No
    


    Brij Mohan Amar Rahe (2018) 1080p - WEB-DL - x264 - DD5.1 - Esubs-Team Jio ExclusiveBrij Mohan Amar Rahe (2018) 1080p - WEB-DL - x264 - DD5.1 - Esubs-Team Jio ExclusiveBrij Mohan Amar Rahe (2018) 1080p - WEB-DL - x264 - DD5.1 - Esubs-Team Jio ExclusiveBrij Mohan Amar Rahe (2018) 1080p - WEB-DL - x264 - DD5.1 - Esubs-Team Jio ExclusiveBrij Mohan Amar Rahe (2018) 1080p - WEB-DL - x264 - DD5.1 - Esubs-Team Jio ExclusiveBrij Mohan Amar Rahe (2018) 1080p - WEB-DL - x264 - DD5.1 - Esubs-Team Jio ExclusiveBrij Mohan Amar Rahe (2018) 1080p - WEB-DL - x264 - DD5.1 - Esubs-Team Jio ExclusiveBrij Mohan Amar Rahe (2018) 1080p - WEB-DL - x264 - DD5.1 - Esubs-Team Jio ExclusiveBrij Mohan Amar Rahe (2018) 1080p - WEB-DL - x264 - DD5.1 - Esubs-Team Jio Exclusive


    SINGLE DIRECT FAST LINKS

    http://www.heroupload.us/b34549cfb4f87897/Brij.Mohan.Amar.Rahe.Hindi.2018.1080p.WEB-DL.DD5.1.ESUBS-Team.Jio.Exclusive.mkv


    http://filefloater.com/1K3s/Brij.Mohan.Amar.Rahe.Hindi.2018.1080p.WEB-DL.DD5.1.ESUBS-Team.Jio.Exclusive.mkv

    1GB LINKS
    
    http://www.heroupload.us/6d0de42abaca2a6d/Brij.Mohan.Amar.Rahe.Hindi.2018.1080p.WEB-DL.DD5.1.ESUBS-Team.Jio.Exclusive.part1.rar
    http://www.heroupload.us/31624de127e08627/Brij.Mohan.Amar.Rahe.Hindi.2018.1080p.WEB-DL.DD5.1.ESUBS-Team.Jio.Exclusive.part2.rar
    http://www.heroupload.us/01a5581e5f406a5c/Brij.Mohan.Amar.Rahe.Hindi.2018.1080p.WEB-DL.DD5.1.ESUBS-Team.Jio.Exclusive.part3.rar
    http://www.heroupload.us/a689e84ec471c053/Brij.Mohan.Amar.Rahe.Hindi.2018.1080p.WEB-DL.DD5.1.ESUBS-Team.Jio.Exclusive.part4.rar


    
    http://filefloater.com/1K3t/Brij.Mohan.Amar.Rahe.Hindi.2018.1080p.WEB-DL.DD5.1.ESUBS-Team.Jio.Exclusive.part1.rar
    http://filefloater.com/1K3u/Brij.Mohan.Amar.Rahe.Hindi.2018.1080p.WEB-DL.DD5.1.ESUBS-Team.Jio.Exclusive.part2.rar
    http://filefloater.com/1K3v/Brij.Mohan.Amar.Rahe.Hindi.2018.1080p.WEB-DL.DD5.1.ESUBS-Team.Jio.Exclusive.part3.rar
    http://filefloater.com/1K3w/Brij.Mohan.Amar.Rahe.Hindi.2018.1080p.WEB-DL.DD5.1.ESUBS-Team.Jio.Exclusive.part4.rar
    



    Buy Premium From My Links & Support Me

    Comments

    Add Comment!


    Add comment

    Name:*
    E-Mail:
    Comment:
    • winkwinkedsmileam
      belayfeelfellowlaughing
      lollovenorecourse
      requestsadtonguewassat
      cryingwhatbullyangry
    Security Code: *
    reload, if the code cannot be seen