a b c d e f g h i j k l m n o p q r s t u v w x y z 0-9

Haseena (2018) 720p - HDRip - x264 - DD5.1-TT Exclusive

  • Views: 18
  • Author: stev
  • Date: 4-10-2018, 19:06
  • Category: Bollywood BluRay - Full HD
  • Rating:
    Description of the movie:
    Haseena (2018) 720p - HDRip - x264 - DD5.1-TT Exclusive





    Format                      : Matroska
    Format version              : Version 4 / Version 2
    File size                   : 1.27 GiB
    Duration                    : 2 h 7 min
    Overall bit rate            : 1 433 kb/s
    Encoded date                : UTC 2018-10-04 10:29:31
    Writing application         : mkvmerge v27.0.0 ('Metropolis') 64-bit
    Writing library             : libebml v1.3.6 + libmatroska v1.4.9
    
    Video
    ID                          : 1
    Format                      : AVC
    Format/Info                 : Advanced Video Codec
    Format profile              : High@L3.1
    Format settings, CABAC      : Yes
    Format settings, RefFrames  : 4 frames
    Codec ID                    : V_MPEG4/ISO/AVC
    Duration                    : 2 h 7 min
    Bit rate                    : 917 kb/s
    Width                       : 1 280 pixels
    Height                      : 542 pixels
    Display aspect ratio        : 2.35:1
    Frame rate mode             : Constant
    Frame rate                  : 25.000 FPS
    Color space                 : YUV
    Chroma subsampling          : 4:2:0
    Bit depth                   : 8 bits
    Scan type                   : Progressive
    Bits/(Pixel*Frame)          : 0.053
    Stream size                 : 836 MiB (64%)
    Writing library             : x264 core 148 r2643 5c65704
    Encoding settings           : cabac=1 / ref=1 / deblock=1:0:0 / analyse=0x3:0x3 / me=dia / subme=1 / psy=1 / psy_rd=1.00:0.00 / mixed_ref=0 / me_range=16 / chroma_me=1 / trellis=0 / 8x8dct=1 / cqm=0 / deadzone=21,11 / fast_pskip=1 / chroma_qp_offset=0 / threads=12 / lookahead_threads=2 / sliced_threads=0 / nr=0 / decimate=1 / interlaced=0 / bluray_compat=0 / constrained_intra=0 / bframes=3 / b_pyramid=2 / b_adapt=1 / b_bias=0 / direct=1 / weightb=1 / open_gop=0 / weightp=1 / keyint=250 / keyint_min=25 / scenecut=40 / intra_refresh=0 / rc=abr / mbtree=0 / bitrate=917 / ratetol=1.0 / qcomp=0.60 / qpmin=0 / qpmax=69 / qpstep=4 / ip_ratio=1.40 / pb_ratio=1.30 / aq=1:1.00
    Language                    : English
    Default                     : Yes
    Forced                      : No
    
    Audio #1
    ID                          : 2
    Format                      : AAC
    Format/Info                 : Advanced Audio Codec
    Format profile              : LC
    Codec ID                    : A_AAC
    Duration                    : 2 h 7 min
    Bit rate                    : 126 kb/s
    Channel(s)                  : 2 channels
    Channel positions           : Front: L R
    Sampling rate               : 48.0 kHz
    Frame rate                  : 46.875 FPS (1024 SPF)
    Compression mode            : Lossy
    Stream size                 : 114 MiB (9%)
    Language                    : Hindi
    Default                     : Yes
    Forced                      : No
    
    Audio #2
    ID                          : 3
    Format                      : AC-3
    Format/Info                 : Audio Coding 3
    Format settings, Endianness : Big
    Codec ID                    : A_AC3
    Duration                    : 2 h 7 min
    Bit rate mode               : Constant
    Bit rate                    : 384 kb/s
    Channel(s)                  : 6 channels
    Channel positions           : Front: L C R, Side: L R, LFE
    Sampling rate               : 48.0 kHz
    Frame rate                  : 31.250 FPS (1536 SPF)
    Bit depth                   : 16 bits
    Compression mode            : Lossy
    Stream size                 : 349 MiB (27%)
    Language                    : Hindi
    Service kind                : Complete Main
    Default                     : No
    Forced                      : No
    
    Menu
    00:00:00.000                : en:1
    00:18:05.625                : en:2
    00:28:06.958                : en:3
    00:52:32.916                : en:4
    02:03:39.666                : en:5
    
    

    Haseena (2018) 720p - HDRip - x264 - DD5.1-TT ExclusiveHaseena (2018) 720p - HDRip - x264 - DD5.1-TT ExclusiveHaseena (2018) 720p - HDRip - x264 - DD5.1-TT ExclusiveHaseena (2018) 720p - HDRip - x264 - DD5.1-TT ExclusiveHaseena (2018) 720p - HDRip - x264 - DD5.1-TT ExclusiveHaseena (2018) 720p - HDRip - x264 - DD5.1-TT ExclusiveHaseena (2018) 720p - HDRip - x264 - DD5.1-TT ExclusiveHaseena (2018) 720p - HDRip - x264 - DD5.1-TT ExclusiveHaseena (2018) 720p - HDRip - x264 - DD5.1-TT ExclusiveHaseena (2018) 720p - HDRip - x264 - DD5.1-TT Exclusive
    SINGLE DIRECT FAST LINKS
    
    http://filefloater.com/2AXk/Haseena.2018.720p.HDRip.x264.DD5.1.TeamTT.mkv


    
    http://www.heroupload.us/008b600f583226cf/Haseena.2018.720p.HDRip.x264.DD5.1.TeamTT.mkv




    Buy Premium From My Links & Support Me

    Comments

    Add Comment!


    Add comment

    Name:*
    E-Mail:
    Comment:
    • winkwinkedsmileam
      belayfeelfellowlaughing
      lollovenorecourse
      requestsadtonguewassat
      cryingwhatbullyangry
    Security Code: *
    reload, if the code cannot be seen