a b c d e f g h i j k l m n o p q r s t u v w x y z 0-9

Fanney Khan (2018) 1080p - WEB-HD - x264 - AAC 5.1 - ESubs-TT Exclusive

  • Views: 12
  • Author: stev
  • Date: 12-10-2018, 00:22
  • Category: Bollywood BluRay - Full HD
  • Rating:
    Description of the movie:
    Fanney Khan (2018) 1080p - WEB-HD - x264 - AAC 5.1 - ESubs-TT Exclusive





    Format                      : Matroska
    Format version              : Version 4 / Version 2
    File size                   : 7.24 GiB
    Duration                    : 2 h 9 min
    Overall bit rate            : 8 020 kb/s
    Encoded date                : UTC 2018-10-11 18:20:11
    Writing application         : mkvmerge v27.0.0 ('Metropolis') 64-bit
    Writing library             : libebml v1.3.6 + libmatroska v1.4.9
    
    Video
    ID                          : 1
    Format                      : AVC
    Format/Info                 : Advanced Video Codec
    Format profile              : High@L4
    Format settings, CABAC      : Yes
    Format settings, RefFrames  : 4 frames
    Codec ID                    : V_MPEG4/ISO/AVC
    Duration                    : 2 h 9 min
    Bit rate                    : 7 506 kb/s
    Nominal bit rate            : 8 000 kb/s
    Width                       : 1 920 pixels
    Height                      : 1 080 pixels
    Display aspect ratio        : 16:9
    Frame rate mode             : Constant
    Frame rate                  : 23.976 (24000/1001) FPS
    Color space                 : YUV
    Chroma subsampling          : 4:2:0
    Bit depth                   : 8 bits
    Scan type                   : Progressive
    Bits/(Pixel*Frame)          : 0.151
    Stream size                 : 6.77 GiB (94%)
    Writing library             : x264 core 148 r2762 90a61ec
    Encoding settings           : cabac=1 / ref=1 / deblock=1:0:0 / analyse=0x3:0x113 / me=hex / subme=2 / psy=1 / psy_rd=1.00:0.00 / mixed_ref=0 / me_range=16 / chroma_me=1 / trellis=0 / 8x8dct=1 / cqm=0 / deadzone=21,11 / fast_pskip=1 / chroma_qp_offset=0 / threads=12 / lookahead_threads=4 / sliced_threads=0 / nr=0 / decimate=1 / interlaced=0 / bluray_compat=0 / constrained_intra=0 / bframes=3 / b_pyramid=2 / b_adapt=1 / b_bias=0 / direct=1 / weightb=1 / open_gop=0 / weightp=1 / keyint=250 / keyint_min=23 / scenecut=40 / intra_refresh=0 / rc_lookahead=10 / rc=cbr / mbtree=1 / bitrate=8000 / ratetol=1.0 / qcomp=0.60 / qpmin=0 / qpmax=69 / qpstep=4 / vbv_maxrate=8000 / vbv_bufsize=8000 / nal_hrd=none / filler=1 / ip_ratio=1.40 / aq=1:1.00
    Default                     : Yes
    Forced                      : No
    
    Audio
    ID                          : 2
    Format                      : AAC
    Format/Info                 : Advanced Audio Codec
    Format profile              : LC
    Codec ID                    : A_AAC
    Duration                    : 2 h 9 min
    Bit rate                    : 510 kb/s
    Channel(s)                  : 6 channels
    Channel positions           : Front: L C R, Side: L R, LFE
    Sampling rate               : 48.0 kHz
    Frame rate                  : 46.875 FPS (1024 SPF)
    Compression mode            : Lossy
    Stream size                 : 472 MiB (6%)
    Title                       : Track1
    Default                     : Yes
    Forced                      : No
    
    


    Fanney Khan (2018) 1080p - WEB-HD - x264 - AAC 5.1 - ESubs-TT ExclusiveFanney Khan (2018) 1080p - WEB-HD - x264 - AAC 5.1 - ESubs-TT ExclusiveFanney Khan (2018) 1080p - WEB-HD - x264 - AAC 5.1 - ESubs-TT ExclusiveFanney Khan (2018) 1080p - WEB-HD - x264 - AAC 5.1 - ESubs-TT ExclusiveFanney Khan (2018) 1080p - WEB-HD - x264 - AAC 5.1 - ESubs-TT ExclusiveFanney Khan (2018) 1080p - WEB-HD - x264 - AAC 5.1 - ESubs-TT ExclusiveFanney Khan (2018) 1080p - WEB-HD - x264 - AAC 5.1 - ESubs-TT ExclusiveFanney Khan (2018) 1080p - WEB-HD - x264 - AAC 5.1 - ESubs-TT ExclusiveFanney Khan (2018) 1080p - WEB-HD - x264 - AAC 5.1 - ESubs-TT Exclusive


    SINGLE DIRECT FAST LINKS

    http://www.heroupload.us/4c934f6ba8e34a41/Fanney.Khan.2018.1080p.WEB-HD.x264.AAC.5.1.Esubs-TeamTT.Exclusive.mkv


    1GB LINKS
    
    http://www.heroupload.us/b4149df714bc01cd/Fanney.Khan.2018.1080p.WEB-HD.x264.AAC.5.1.Esubs-TeamTT.Exclusive.part1.rar
    http://www.heroupload.us/df96bf9cf43c8095/Fanney.Khan.2018.1080p.WEB-HD.x264.AAC.5.1.Esubs-TeamTT.Exclusive.part2.rar
    http://www.heroupload.us/5d3447bd943f4e49/Fanney.Khan.2018.1080p.WEB-HD.x264.AAC.5.1.Esubs-TeamTT.Exclusive.part3.rar
    http://www.heroupload.us/4312e7038ddec7ad/Fanney.Khan.2018.1080p.WEB-HD.x264.AAC.5.1.Esubs-TeamTT.Exclusive.part4.rar
    http://www.heroupload.us/6b2132ce4ce909d2/Fanney.Khan.2018.1080p.WEB-HD.x264.AAC.5.1.Esubs-TeamTT.Exclusive.part5.rar
    http://www.heroupload.us/1057d7be508e2ec8/Fanney.Khan.2018.1080p.WEB-HD.x264.AAC.5.1.Esubs-TeamTT.Exclusive.part6.rar
    http://www.heroupload.us/9f95e3e136e5507e/Fanney.Khan.2018.1080p.WEB-HD.x264.AAC.5.1.Esubs-TeamTT.Exclusive.part7.rar
    http://www.heroupload.us/53bb9b2dfb5b3cc6/Fanney.Khan.2018.1080p.WEB-HD.x264.AAC.5.1.Esubs-TeamTT.Exclusive.part8.rar
    http://www.heroupload.us/e6850135ea144cd3/Fanney.Khan.2018.1080p.WEB-HD.x264.AAC.5.1.Esubs-TeamTT.Exclusive.srt


    http://filefloater.com/2B12/Fanney.Khan.2018.1080p.WEB-HD.x264.AAC.5.1.Esubs-TeamTT.Exclusive.part1.rar
    http://filefloater.com/2B13/Fanney.Khan.2018.1080p.WEB-HD.x264.AAC.5.1.Esubs-TeamTT.Exclusive.part2.rar
    http://filefloater.com/2B14/Fanney.Khan.2018.1080p.WEB-HD.x264.AAC.5.1.Esubs-TeamTT.Exclusive.part3.rar
    http://filefloater.com/2B15/Fanney.Khan.2018.1080p.WEB-HD.x264.AAC.5.1.Esubs-TeamTT.Exclusive.part4.rar
    http://filefloater.com/2B16/Fanney.Khan.2018.1080p.WEB-HD.x264.AAC.5.1.Esubs-TeamTT.Exclusive.part5.rar
    http://filefloater.com/1KZj/Fanney.Khan.2018.1080p.WEB-HD.x264.AAC.5.1.Esubs-TeamTT.Exclusive.part6.rar
    http://filefloater.com/2B18/Fanney.Khan.2018.1080p.WEB-HD.x264.AAC.5.1.Esubs-TeamTT.Exclusive.part7.rar
    http://filefloater.com/2B19/Fanney.Khan.2018.1080p.WEB-HD.x264.AAC.5.1.Esubs-TeamTT.Exclusive.part8.rar
    http://filefloater.com/2B1a/Fanney.Khan.2018.1080p.WEB-HD.x264.AAC.5.1.Esubs-TeamTT.Exclusive.srt
    


    Buy Premium From My Links & Support Me

    Comments

    Add Comment!


    Add comment

    Name:*
    E-Mail:
    Comment:
    • winkwinkedsmileam
      belayfeelfellowlaughing
      lollovenorecourse
      requestsadtonguewassat
      cryingwhatbullyangry
    Security Code: *
    reload, if the code cannot be seen