a b c d e f g h i j k l m n o p q r s t u v w x y z 0-9

Kaun Hai Villain (2018) Hindi - 1080p - WEB-HD - AVC - AAC-RKD Exclusive

  • Views: 23
  • Author: stev
  • Date: 30-07-2018, 17:36
  • Category: South Indian Hindi Dub Movies
  • Rating:
    Description of the movie:
    Kaun Hai Villain (2018) Hindi - 1080p - WEB-HD - AVC - AAC-RKD Exclusive





    Format                      : MPEG-4
    Format profile              : Base Media
    Codec ID                    : isom (isom/iso2/avc1/mp41)
    File size                   : 2.27 GiB
    Duration                    : 1 h 56 min
    Overall bit rate            : 2 784 kb/s
    Writing application         : Lavf58.9.100
    
    Video
    ID                          : 1
    Format                      : AVC
    Format/Info                 : Advanced Video Codec
    Format profile              : High@L4
    Format settings, CABAC      : Yes
    Format settings, RefFrames  : 2 frames
    Codec ID                    : avc1
    Codec ID/Info               : Advanced Video Coding
    Duration                    : 1 h 56 min
    Bit rate                    : 2 652 kb/s
    Width                       : 1 920 pixels
    Height                      : 1 080 pixels
    Display aspect ratio        : 16:9
    Frame rate mode             : Constant
    Frame rate                  : 25.000 FPS
    Color space                 : YUV
    Chroma subsampling          : 4:2:0
    Bit depth                   : 8 bits
    Scan type                   : Progressive
    Bits/(Pixel*Frame)          : 0.051
    Stream size                 : 2.16 GiB (95%)
    Color range                 : Limited
    Color primaries             : BT.709
    Transfer characteristics    : BT.709
    Matrix coefficients         : BT.709
    
    Audio
    ID                          : 2
    Format                      : AAC
    Format/Info                 : Advanced Audio Codec
    Format profile              : LC
    Codec ID                    : 40
    Duration                    : 1 h 56 min
    Bit rate mode               : Constant
    Bit rate                    : 126 kb/s
    Channel(s)                  : 2 channels
    Channel positions           : Front: L R
    Sampling rate               : 44.1 kHz
    Frame rate                  : 43.066 FPS (1024 SPF)
    Compression mode            : Lossy
    Stream size                 : 105 MiB (5%)
    Language                    : English
    Default                     : Yes
    Alternate group             : 1
    
    


    Kaun Hai Villain (2018) Hindi - 1080p - WEB-HD - AVC - AAC-RKD ExclusiveKaun Hai Villain (2018) Hindi - 1080p - WEB-HD - AVC - AAC-RKD ExclusiveKaun Hai Villain (2018) Hindi - 1080p - WEB-HD - AVC - AAC-RKD ExclusiveKaun Hai Villain (2018) Hindi - 1080p - WEB-HD - AVC - AAC-RKD ExclusiveKaun Hai Villain (2018) Hindi - 1080p - WEB-HD - AVC - AAC-RKD ExclusiveKaun Hai Villain (2018) Hindi - 1080p - WEB-HD - AVC - AAC-RKD ExclusiveKaun Hai Villain (2018) Hindi - 1080p - WEB-HD - AVC - AAC-RKD Exclusive

    SINGLE DIRECT FAST LINKS
    http://www.heroupload.us/6057171e9541fea6/Kaun.Hai.Villain.2018.Hindi.1080p.WEB-HD.AVC.AAC-RKD.Exclusive.mp4


    http://filefloater.com/1K0j/Kaun.Hai.Villain.2018.Hindi.1080p.WEB-HD.AVC.AAC-RKD.Exclusive.mp4

    700MB LINKS
    
    http://www.heroupload.us/63ccf6f74e8fbb98/Kaun.Hai.Villain.2018.Hindi.1080p.WEB-HD.AVC.AAC-RKD.Exclusive.part1.rar
    http://www.heroupload.us/a6f4cfddefdc6160/Kaun.Hai.Villain.2018.Hindi.1080p.WEB-HD.AVC.AAC-RKD.Exclusive.part2.rar
    http://www.heroupload.us/5ad19bba6da0af43/Kaun.Hai.Villain.2018.Hindi.1080p.WEB-HD.AVC.AAC-RKD.Exclusive.part3.rar
    http://www.heroupload.us/dc6b80a88157c308/Kaun.Hai.Villain.2018.Hindi.1080p.WEB-HD.AVC.AAC-RKD.Exclusive.part4.rar


    
    http://filefloater.com/1K0k/Kaun.Hai.Villain.2018.Hindi.1080p.WEB-HD.AVC.AAC-RKD.Exclusive.part1.rar
    http://filefloater.com/1K0l/Kaun.Hai.Villain.2018.Hindi.1080p.WEB-HD.AVC.AAC-RKD.Exclusive.part2.rar
    http://filefloater.com/1K0m/Kaun.Hai.Villain.2018.Hindi.1080p.WEB-HD.AVC.AAC-RKD.Exclusive.part3.rar
    http://filefloater.com/1K0n/Kaun.Hai.Villain.2018.Hindi.1080p.WEB-HD.AVC.AAC-RKD.Exclusive.part4.rar
    


    Buy Premium From My Links & Support Me

    Comments

    Add Comment!


    Add comment

    Name:*
    E-Mail:
    Comment:
    • winkwinkedsmileam
      belayfeelfellowlaughing
      lollovenorecourse
      requestsadtonguewassat
      cryingwhatbullyangry
    Security Code: *
    reload, if the code cannot be seen