a b c d e f g h i j k l m n o p q r s t u v w x y z 0-9

Tik Tik Tik (2018) Telugu Line - 720p - HDRip - x264 - MP3 - HC-ESub-TMV

  • Views: 39
  • Author: stev
  • Date: 2-08-2018, 09:25
  • Category: Telugu Movies
  • Rating:
    Description of the movie:
    Tik Tik Tik (2018) Telugu Line - 720p - HDRip - x264 - MP3 - HC-ESub-TMV





    Format                      : Matroska
    Format version              : Version 4 / Version 2
    File size                   : 1.38 GiB
    Duration                    : 2 h 4 min
    Overall bit rate mode       : Variable
    Overall bit rate            : 1 591 kb/s
    Encoded date                : UTC 2018-08-02 02:13:59
    Writing application         : mkvmerge v7.1.0 ('Good Love') 32bit built on Jul 27 2014 12:59:18
    Writing library             : libebml v1.3.0 + libmatroska v1.4.1
    
    Video
    ID                          : 1
    Format                      : AVC
    Format/Info                 : Advanced Video Codec
    Format profile              : High@L3.1
    Format settings, CABAC      : Yes
    Format settings, RefFrames  : 4 frames
    Codec ID                    : V_MPEG4/ISO/AVC
    Duration                    : 2 h 4 min
    Bit rate                    : 1 493 kb/s
    Width                       : 1 280 pixels
    Height                      : 554 pixels
    Display aspect ratio        : 2.35:1
    Frame rate mode             : Constant
    Frame rate                  : 24.000 FPS
    Color space                 : YUV
    Chroma subsampling          : 4:2:0
    Bit depth                   : 8 bits
    Scan type                   : Progressive
    Bits/(Pixel*Frame)          : 0.088
    Stream size                 : 1.30 GiB (94%)
    Writing library             : x264 core 152 r2851 ba24899
    Encoding settings           : cabac=1 / ref=3 / deblock=1:0:0 / analyse=0x3:0x113 / me=hex / subme=7 / psy=1 / psy_rd=1.00:0.00 / mixed_ref=1 / me_range=16 / chroma_me=1 / trellis=1 / 8x8dct=1 / cqm=0 / deadzone=21,11 / fast_pskip=1 / chroma_qp_offset=-2 / threads=17 / lookahead_threads=2 / sliced_threads=0 / nr=0 / decimate=1 / interlaced=0 / bluray_compat=0 / constrained_intra=0 / bframes=3 / b_pyramid=2 / b_adapt=1 / b_bias=0 / direct=1 / weightb=1 / open_gop=0 / weightp=2 / keyint=240 / keyint_min=24 / scenecut=40 / intra_refresh=0 / rc_lookahead=40 / rc=2pass / mbtree=1 / bitrate=1493 / ratetol=1.0 / qcomp=0.60 / qpmin=0 / qpmax=69 / qpstep=4 / cplxblur=20.0 / qblur=0.5 / ip_ratio=1.40 / aq=1:1.00
    Language                    : Tamil
    Default                     : Yes
    Forced                      : No
    
    Audio
    ID                          : 2
    Format                      : MPEG Audio
    Format version              : Version 1
    Format profile              : Layer 3
    Mode                        : Joint stereo
    Mode extension              : MS Stereo
    Codec ID                    : A_MPEG/L3
    Codec ID/Hint               : MP3
    Duration                    : 2 h 4 min
    Bit rate mode               : Variable
    Bit rate                    : 96.0 kb/s
    Channel(s)                  : 2 channels
    Sampling rate               : 48.0 kHz
    Frame rate                  : 41.667 FPS (1152 SPF)
    Compression mode            : Lossy
    Stream size                 : 85.0 MiB (6%)
    Writing library             : LAME3.99r
    Encoding settings           : -m j -V 4 -q 3 -lowpass 15.1 --abr 96
    Language                    : Telugu
    Default                     : Yes
    Forced                      : No
    
    


    Tik Tik Tik (2018) Telugu Line - 720p - HDRip - x264 - MP3 - HC-ESub-TMVTik Tik Tik (2018) Telugu Line - 720p - HDRip - x264 - MP3 - HC-ESub-TMVTik Tik Tik (2018) Telugu Line - 720p - HDRip - x264 - MP3 - HC-ESub-TMVTik Tik Tik (2018) Telugu Line - 720p - HDRip - x264 - MP3 - HC-ESub-TMV

    SINGLE DIRECT FAST LINKS

    http://www.heroupload.us/9523b50381797cbe/Tik.Tik.Tik.2018.Telugu.HDRip.720p.x264.HQ.Line.Audio-TMV.mkv


    http://filefloater.com/U15/Tik.Tik.Tik.2018.Telugu.HDRip.720p.x264.HQ.Line.Audio-TMV.mkv






    Buy Premium From My Links & Support Me

    Comments

    Add Comment!


    Add comment

    Name:*
    E-Mail:
    Comment:
    • winkwinkedsmileam
      belayfeelfellowlaughing
      lollovenorecourse
      requestsadtonguewassat
      cryingwhatbullyangry
    Security Code: *
    reload, if the code cannot be seen