a b c d e f g h i j k l m n o p q r s t u v w x y z 0-9

Ugly (2013) 720p - BluRay - x264 - DD5.1-NhaNc3

  • Views: 15
  • Author: stev
  • Date: 20-07-2018, 23:02
  • Category: U / 2014 / Bollywood BluRay - Full HD
  • Rating:
    Description of the movie:
    Ugly (2013) 720p - BluRay - x264 - DD5.1-NhaNc3



    Format                      : Matroska
    Format version              : Version 2
    File size                   : 2.54 GiB
    Duration                    : 2 h 6 min
    Overall bit rate            : 2 886 kb/s
    Encoded date                : UTC 2015-04-13 10:52:42
    Writing application         : mkvmerge v4.9.1 ('Ich will') built on Jul 11 2011 23:53:15
    Writing library             : libebml v1.2.1 + libmatroska v1.1.1
    
    Video
    ID                          : 1
    Format                      : AVC
    Format/Info                 : Advanced Video Codec
    Format profile              : High@L4.1
    Format settings, CABAC      : Yes
    Format settings, RefFrames  : 8 frames
    Codec ID                    : V_MPEG4/ISO/AVC
    Duration                    : 2 h 6 min
    Bit rate                    : 2 497 kb/s
    Width                       : 1 280 pixels
    Height                      : 544 pixels
    Display aspect ratio        : 2.35:1
    Frame rate mode             : Constant
    Frame rate                  : 24.000 FPS
    Color space                 : YUV
    Chroma subsampling          : 4:2:0
    Bit depth                   : 8 bits
    Scan type                   : Progressive
    Bits/(Pixel*Frame)          : 0.149
    Stream size                 : 2.15 GiB (85%)
    Writing library             : x264 core 130 r2273 b3065e6
    Encoding settings           : cabac=1 / ref=8 / deblock=1:0:0 / analyse=0x3:0x113 / me=umh / subme=9 / psy=1 / psy_rd=1.00:0.00 / mixed_ref=1 / me_range=16 / chroma_me=1 / trellis=1 / 8x8dct=1 / cqm=0 / deadzone=21,11 / fast_pskip=1 / chroma_qp_offset=-2 / threads=8 / lookahead_threads=1 / sliced_threads=0 / nr=0 / decimate=1 / interlaced=0 / bluray_compat=0 / constrained_intra=0 / bframes=5 / b_pyramid=2 / b_adapt=1 / b_bias=0 / direct=1 / weightb=1 / open_gop=0 / weightp=2 / keyint=250 / keyint_min=23 / scenecut=40 / intra_refresh=0 / rc_lookahead=40 / rc=2pass / mbtree=1 / bitrate=2497 / ratetol=1.0 / qcomp=0.60 / qpmin=0 / qpmax=69 / qpstep=4 / cplxblur=20.0 / qblur=0.5 / vbv_maxrate=20000 / vbv_bufsize=15000 / nal_hrd=none / ip_ratio=1.40 / aq=1:1.00
    Language                    : English
    Default                     : Yes
    Forced                      : No
    Color range                 : Limited
    Color primaries             : BT.709
    Transfer characteristics    : BT.709
    Matrix coefficients         : BT.709
    
    Audio
    ID                          : 2
    Format                      : AC-3
    Format/Info                 : Audio Coding 3
    Format settings, Endianness : Big
    Codec ID                    : A_AC3
    Duration                    : 2 h 6 min
    Bit rate mode               : Constant
    Bit rate                    : 384 kb/s
    Channel(s)                  : 6 channels
    Channel positions           : Front: L C R, Side: L R, LFE
    Sampling rate               : 48.0 kHz
    Frame rate                  : 31.250 FPS (1536 SPF)
    Bit depth                   : 16 bits
    Compression mode            : Lossy
    Stream size                 : 346 MiB (13%)
    Language                    : English
    Service kind                : Complete Main
    Default                     : Yes
    Forced                      : Yes
    
    Text #1
    ID                          : 3
    Format                      : VobSub
    Codec ID                    : S_VOBSUB
    Codec ID/Info               : Picture based subtitle format used on DVDs
    Title                       : Track 1 [DDR]
    Language                    : English
    Default                     : Yes
    Forced                      : No
    Statistics Tags Issue       : mkvmerge v7.3.0 ('Nouages') 32bit built on Oct 22 2014 18:44:01 2015-03-02 01:53:14 / mkvmerge v4.9.1 ('Ich will') built on Jul 11 2011 23:53:15 2015-04-13 10:52:42
    FromStats_BitRate           : 3043
    FromStats_Duration          : 02:01:07.498000000
    FromStats_FrameCount        : 1240
    FromStats_StreamSize        : 2764925
    
    Text #2
    ID                          : 4
    Format                      : VobSub
    Muxing mode                 : zlib
    Codec ID                    : S_VOBSUB
    Codec ID/Info               : Picture based subtitle format used on DVDs
    Title                       : Track 1 [DDR]
    Language                    : Arabic
    Default                     : No
    Forced                      : No
    Statistics Tags Issue       : mkvmerge v7.3.0 ('Nouages') 32bit built on Oct 22 2014 18:44:01 2015-03-02 01:53:14 / mkvmerge v4.9.1 ('Ich will') built on Jul 11 2011 23:53:15 2015-04-13 10:52:42
    FromStats_BitRate           : 2131
    FromStats_Duration          : 02:01:07.498000000
    FromStats_FrameCount        : 1240
    FromStats_StreamSize        : 1936255
    
    



    Ugly (2013) 720p - BluRay - x264 - DD5.1-NhaNc3


    SINGLE DIRECT FAST LINKS
    
    http://www.heroupload.us/919f18533d16e636/Ugly.2014.720p.BluRay.nHD.x264-NhaNc3.mkv


    
    http://filefloater.com/29Mc/Ugly.2014.720p.BluRay.nHD.x264-NhaNc3.mkv



    Buy Premium From My Links & Support Me

    Comments

    Add Comment!


    Add comment

    Name:*
    E-Mail:
    Comment:
    • winkwinkedsmileam
      belayfeelfellowlaughing
      lollovenorecourse
      requestsadtonguewassat
      cryingwhatbullyangry
    Security Code: *
    reload, if the code cannot be seen