a b c d e f g h i j k l m n o p q r s t u v w x y z 0-9

Veer-Zaara (2004) 720p - BluRay - x264 - DD5.1-NhaNc3

  • Views: 14
  • Author: stev
  • Date: 20-07-2018, 23:11
  • Category: V / 2004 / Bollywood BluRay - Full HD
  • Rating:
    Description of the movie:
    Veer-Zaara (2004) 720p - BluRay - x264 - DD5.1-NhaNc3



    Format version              : Version 2
    File size                   : 2.19 GiB
    Duration                    : 3 h 16 min
    Overall bit rate            : 1 593 kb/s
    Encoded date                : UTC 2009-12-21 18:45:53
    Writing application         : mkvmerge v2.9.7 ('Tenderness') built on Jul  1 2009 18:43:35
    Writing library             : libebml v0.7.7 + libmatroska v0.8.1
    
    Video
    ID                          : 1
    Format                      : AVC
    Format/Info                 : Advanced Video Codec
    Format profile              : High@L4.1
    Format settings, CABAC      : Yes
    Format settings, RefFrames  : 8 frames
    Codec ID                    : V_MPEG4/ISO/AVC
    Duration                    : 3 h 16 min
    Bit rate                    : 1 399 kb/s
    Width                       : 1 280 pixels
    Height                      : 544 pixels
    Display aspect ratio        : 2.35:1
    Frame rate mode             : Constant
    Frame rate                  : 24.000 FPS
    Color space                 : YUV
    Chroma subsampling          : 4:2:0
    Bit depth                   : 8 bits
    Scan type                   : Progressive
    Bits/(Pixel*Frame)          : 0.084
    Stream size                 : 1.88 GiB (86%)
    Writing library             : x264 core 75 r1247 b3efbe5
    Encoding settings           : cabac=1 / ref=8 / deblock=1:-1:-3 / analyse=0x3:0x113 / me=umh / subme=9 / psy=1 / psy_rd=1.0:0.0 / mixed_ref=1 / me_range=16 / chroma_me=1 / trellis=2 / 8x8dct=1 / cqm=2 / deadzone=21,11 / chroma_qp_offset=-2 / threads=12 / nr=0 / decimate=1 / mbaff=0 / bframes=3 / b_pyramid=0 / b_adapt=2 / b_bias=0 / direct=3 / wpredb=1 / keyint=250 / keyint_min=25 / scenecut=40 / rc_lookahead=0 / rc=2pass / mbtree=0 / bitrate=1399 / ratetol=1.0 / qcomp=0.60 / qpmin=10 / qpmax=51 / qpstep=4 / cplxblur=20.0 / qblur=0.5 / vbv_maxrate=50000 / vbv_bufsize=50000 / ip_ratio=1.40 / pb_ratio=1.30 / aq=1:1.00
    Language                    : English
    Default                     : Yes
    Forced                      : No
    
    Audio
    ID                          : 2
    Format                      : AC-3
    Format/Info                 : Audio Coding 3
    Format settings, Endianness : Big
    Codec ID                    : A_AC3
    Duration                    : 3 h 16 min
    Bit rate mode               : Constant
    Bit rate                    : 192 kb/s
    Channel(s)                  : 6 channels
    Channel positions           : Front: L C R, Side: L R, LFE
    Sampling rate               : 48.0 kHz
    Frame rate                  : 31.250 FPS (1536 SPF)
    Bit depth                   : 16 bits
    Compression mode            : Lossy
    Stream size                 : 270 MiB (12%)
    Language                    : Hindi
    Service kind                : Complete Main
    Default                     : Yes
    Forced                      : No
    
    


    Veer-Zaara (2004) 720p - BluRay - x264 - DD5.1-NhaNc3

    SINGLE DIRECT FAST LINKS
    
    http://www.heroupload.us/2af90328022bd150/Veer.Zaara.2004.720p.BluRay.nHD.x264-NhaNc3.mkv


    
    http://filefloater.com/29Mh/Veer.Zaara.2004.720p.BluRay.nHD.x264-NhaNc3.mkv



    Buy Premium From My Links & Support Me

    Comments

    Add Comment!


    Add comment

    Name:*
    E-Mail:
    Comment:
    • winkwinkedsmileam
      belayfeelfellowlaughing
      lollovenorecourse
      requestsadtonguewassat
      cryingwhatbullyangry
    Security Code: *
    reload, if the code cannot be seen