a b c d e f g h i j k l m n o p q r s t u v w x y z 0-9

Vivah (2006) 720p - BluRay - x264 - DD5.1-NhaNc3

  • Views: 14
  • Author: stev
  • Date: 20-07-2018, 23:14
  • Category: V / 2006 / Bollywood BluRay - Full HD
  • Rating:
    Description of the movie:
    Vivah (2006) 720p - BluRay - x264 - DD5.1-NhaNc3



    Format                      : Matroska
    Format version              : Version 2
    File size                   : 3.32 GiB
    Duration                    : 2 h 46 min
    Overall bit rate            : 2 862 kb/s
    Encoded date                : UTC 2012-07-14 20:50:49
    Writing application         : mkvmerge v4.8.0 ('I Got The...') built on May 24 2011 03:12:58
    Writing library             : libebml v1.2.0 + libmatroska v1.1.0
    
    Video
    ID                          : 1
    Format                      : AVC
    Format/Info                 : Advanced Video Codec
    Format profile              : High@L4.1
    Format settings, CABAC      : Yes
    Format settings, RefFrames  : 5 frames
    Codec ID                    : V_MPEG4/ISO/AVC
    Duration                    : 2 h 46 min
    Bit rate                    : 2 476 kb/s
    Width                       : 1 280 pixels
    Height                      : 544 pixels
    Display aspect ratio        : 2.35:1
    Frame rate mode             : Constant
    Frame rate                  : 24.000 FPS
    Color space                 : YUV
    Chroma subsampling          : 4:2:0
    Bit depth                   : 8 bits
    Scan type                   : Progressive
    Bits/(Pixel*Frame)          : 0.148
    Stream size                 : 2.81 GiB (85%)
    Writing library             : x264 core 125 r2200 999b753
    Encoding settings           : cabac=1 / ref=5 / deblock=1:0:0 / analyse=0x3:0x113 / me=umh / subme=9 / psy=1 / psy_rd=1.00:0.00 / mixed_ref=1 / me_range=16 / chroma_me=1 / trellis=1 / 8x8dct=1 / cqm=0 / deadzone=21,11 / fast_pskip=1 / chroma_qp_offset=-2 / threads=12 / lookahead_threads=2 / sliced_threads=0 / nr=0 / decimate=1 / interlaced=0 / bluray_compat=0 / constrained_intra=0 / bframes=5 / b_pyramid=2 / b_adapt=1 / b_bias=0 / direct=1 / weightb=1 / open_gop=0 / weightp=2 / keyint=250 / keyint_min=24 / scenecut=40 / intra_refresh=0 / rc_lookahead=40 / rc=2pass / mbtree=1 / bitrate=2476 / ratetol=1.0 / qcomp=0.60 / qpmin=0 / qpmax=69 / qpstep=4 / cplxblur=20.0 / qblur=0.5 / vbv_maxrate=20000 / vbv_bufsize=15000 / nal_hrd=none / ip_ratio=1.40 / aq=1:1.00
    Language                    : English
    Default                     : Yes
    Forced                      : No
    Color range                 : Limited
    Color primaries             : BT.709
    Transfer characteristics    : BT.709
    Matrix coefficients         : BT.709
    
    Audio
    ID                          : 2
    Format                      : AC-3
    Format/Info                 : Audio Coding 3
    Format settings, Endianness : Big
    Codec ID                    : A_AC3
    Duration                    : 2 h 46 min
    Bit rate mode               : Constant
    Bit rate                    : 384 kb/s
    Channel(s)                  : 6 channels
    Channel positions           : Front: L C R, Side: L R, LFE
    Sampling rate               : 48.0 kHz
    Frame rate                  : 31.250 FPS (1536 SPF)
    Bit depth                   : 16 bits
    Compression mode            : Lossy
    Stream size                 : 456 MiB (13%)
    Language                    : English
    Service kind                : Complete Main
    Default                     : Yes
    Forced                      : Yes
    
    Menu
    00:00:00.000                : en:00:00:00.000
    00:04:07.666                : en:00:04:07.666
    00:06:03.833                : en:00:06:03.833
    00:11:48.208                : en:00:11:48.208
    00:18:06.083                : en:00:18:06.083
    00:26:16.750                : en:00:26:16.750
    00:31:23.250                : en:00:31:23.250
    00:36:43.458                : en:00:36:43.458
    00:43:50.916                : en:00:43:50.916
    00:48:16.708                : en:00:48:16.708
    00:59:19.750                : en:00:59:19.750
    01:13:46.583                : en:01:13:46.583
    01:40:58.208                : en:01:40:58.208
    01:46:09.125                : en:01:46:09.125
    02:00:59.250                : en:02:00:59.250
    02:02:04.291                : en:02:02:04.291
    02:05:40.291                : en:02:05:40.291
    02:23:31.166                : en:02:23:31.166
    02:36:27.333                : en:02:36:27.333
    
    


    Vivah (2006) 720p - BluRay - x264 - DD5.1-NhaNc3
    SINGLE DIRECT FAST LINKS
    
    http://www.heroupload.us/0fb30a4ec21fca92/Vivah.2006.720p.BluRay.nHD.x264-NhaNc3.mkv


    
    http://filefloater.com/29Mo/Vivah.2006.720p.BluRay.nHD.x264-NhaNc3.mkv




    Buy Premium From My Links & Support Me

    Comments

    Add Comment!


    Add comment

    Name:*
    E-Mail:
    Comment:
    • winkwinkedsmileam
      belayfeelfellowlaughing
      lollovenorecourse
      requestsadtonguewassat
      cryingwhatbullyangry
    Security Code: *
    reload, if the code cannot be seen