a b c d e f g h i j k l m n o p q r s t u v w x y z 0-9

13B: Fear Has a New Address (2009) 480p - HD-DVDRip - AVC - AAC-Bollywooda2z

  • Views: 32
  • Author: stev
  • Date: 1-09-2018, 17:08
  • Category: 0-9 / 2009 / Bollywood DVDRips - HDRips
  • Rating:
    Description of the movie:
    13B: Fear Has a New Address (2009) 480p - HD-DVDRip - AVC - AAC-Bollywooda2z



    Format                      : MPEG-4
    Format profile              : Base Media
    Codec ID                    : isom (isom)
    File size                   : 1.19 GiB
    Duration                    : 2 h 18 min
    Overall bit rate mode       : Variable
    Overall bit rate            : 1 230 kb/s
    Encoded date                : UTC 2011-08-19 00:57:01
    Tagged date                 : UTC 2011-08-19 00:57:01
    
    Video
    ID                          : 1
    Format                      : AVC
    Format/Info                 : Advanced Video Codec
    Format profile              : High@L3.1
    Format settings, CABAC      : Yes
    Format settings, RefFrames  : 8 frames
    Codec ID                    : avc1
    Codec ID/Info               : Advanced Video Coding
    Duration                    : 2 h 18 min
    Bit rate                    : 1 100 kb/s
    Maximum bit rate            : 5 309 kb/s
    Width                       : 720 pixels
    Height                      : 480 pixels
    Display aspect ratio        : 1.85:1
    Original display aspect rat : 1.85:1
    Frame rate mode             : Constant
    Frame rate                  : 29.970 (30000/1001) FPS
    Standard                    : NTSC
    Color space                 : YUV
    Chroma subsampling          : 4:2:0
    Bit depth                   : 8 bits
    Scan type                   : Progressive
    Bits/(Pixel*Frame)          : 0.106
    Stream size                 : 1.06 GiB (89%)
    Writing library             : x264 core 115 r1995 c1e60b9
    Encoding settings           : cabac=1 / ref=8 / deblock=1:-1:-1 / analyse=0x3:0x133 / me=umh / subme=9 / psy=1 / psy_rd=1.00:0.15 / mixed_ref=1 / me_range=16 / chroma_me=1 / trellis=2 / 8x8dct=1 / cqm=0 / deadzone=21,11 / fast_pskip=1 / chroma_qp_offset=-3 / threads=18 / sliced_threads=0 / nr=0 / decimate=1 / interlaced=0 / bluray_compat=0 / constrained_intra=0 / bframes=3 / b_pyramid=2 / b_adapt=2 / b_bias=0 / direct=3 / weightb=1 / open_gop=0 / weightp=2 / keyint=250 / keyint_min=25 / scenecut=40 / intra_refresh=0 / rc_lookahead=60 / rc=2pass / mbtree=1 / bitrate=1100 / ratetol=1.0 / qcomp=0.60 / qpmin=0 / qpmax=69 / qpstep=4 / cplxblur=20.0 / qblur=0.5 / ip_ratio=1.40 / aq=1:1.00
    Encoded date                : UTC 2011-08-14 23:25:11
    Tagged date                 : UTC 2011-08-19 00:57:26
    
    Audio
    ID                          : 2
    Format                      : AAC
    Format/Info                 : Advanced Audio Codec
    Format profile              : LC
    Codec ID                    : 67
    Duration                    : 2 h 18 min
    Bit rate mode               : Variable
    Bit rate                    : 126 kb/s
    Maximum bit rate            : 214 kb/s
    Channel(s)                  : 2 channels
    Channel positions           : Front: L R
    Sampling rate               : 44.1 kHz
    Frame rate                  : 43.066 FPS (1024 SPF)
    Compression mode            : Lossy
    Stream size                 : 124 MiB (10%)
    Encoded date                : UTC 2011-08-19 00:57:17
    Tagged date                 : UTC 2011-08-19 00:57:26
    
    

    13B: Fear Has a New Address (2009) 480p - HD-DVDRip - AVC - AAC-Bollywooda2z
    SINGLE DIRECT FAST LINKS
    http://www.heroupload.us/7b938aca4598c8bf/13.B.mp4


    
    http://filefloater.com/2aBm/13.B.mp4


    Buy Premium From My Links & Support Me

    Comments

    Add Comment!


    Add comment

    Name:*
    E-Mail:
    Comment:
    • winkwinkedsmileam
      belayfeelfellowlaughing
      lollovenorecourse
      requestsadtonguewassat
      cryingwhatbullyangry
    Security Code: *
    reload, if the code cannot be seen