a b c d e f g h i j k l m n o p q r s t u v w x y z 0-9

Super Nani (2014) 480p - HD-DVDRip - AVC - AAC-Bollywooda2z

  • Views: 127
  • Author: stev
  • Date: 8-09-2018, 01:59
  • Category: S / 2014 / Bollywood DVDRips - HDRips
  • Rating:
    Description of the movie:
    Super Nani (2014) 480p - HD-DVDRip - AVC - AAC-Bollywooda2z



    Format                      : MPEG-4
    Format profile              : Base Media
    Codec ID                    : isom (isom)
    File size                   : 1.27 GiB
    Duration                    : 2 h 12 min
    Overall bit rate mode       : Variable
    Overall bit rate            : 1 368 kb/s
    Encoded date                : UTC 2015-04-27 17:53:53
    Tagged date                 : UTC 2015-04-27 17:53:53
    
    Video
    ID                          : 1
    Format                      : AVC
    Format/Info                 : Advanced Video Codec
    Format profile              : Main@L3.1
    Format settings, CABAC      : Yes
    Format settings, RefFrames  : 8 frames
    Codec ID                    : avc1
    Codec ID/Info               : Advanced Video Coding
    Duration                    : 2 h 12 min
    Bit rate                    : 1 300 kb/s
    Maximum bit rate            : 5 095 kb/s
    Width                       : 720 pixels
    Height                      : 480 pixels
    Display aspect ratio        : 1.85:1
    Frame rate mode             : Constant
    Frame rate                  : 23.976 (24000/1001) FPS
    Color space                 : YUV
    Chroma subsampling          : 4:2:0
    Bit depth                   : 8 bits
    Scan type                   : Progressive
    Bits/(Pixel*Frame)          : 0.157
    Stream size                 : 1.21 GiB (95%)
    Encoded date                : UTC 2015-04-28 07:53:57
    Tagged date                 : UTC 2015-04-27 17:54:27
    
    Audio
    ID                          : 2
    Format                      : AAC
    Format/Info                 : Advanced Audio Codec
    Format profile              : LC
    Codec ID                    : 40
    Duration                    : 2 h 12 min
    Bit rate mode               : Variable
    Bit rate                    : 63.8 kb/s
    Maximum bit rate            : 112 kb/s
    Channel(s)                  : 2 channels
    Channel positions           : Front: L R
    Sampling rate               : 48.0 kHz
    Frame rate                  : 46.875 FPS (1024 SPF)
    Compression mode            : Lossy
    Stream size                 : 60.7 MiB (5%)
    Language                    : Hindi
    Encoded date                : UTC 2015-04-28 07:54:48
    Tagged date                 : UTC 2015-04-27 17:54:27
    
    


    Super Nani (2014) 480p - HD-DVDRip - AVC - AAC-Bollywooda2z
    SINGLE DIRECT FAST LINKS
    
    http://www.heroupload.us/5fe155736423371c/Super.Nani.mp4


    
    http://filefloater.com/2AJl/Super.Nani.mp4


    Buy Premium From My Links & Support Me

    Comments

    Add Comment!


    Add comment

    Name:*
    E-Mail:
    Comment:
    • winkwinkedsmileam
      belayfeelfellowlaughing
      lollovenorecourse
      requestsadtonguewassat
      cryingwhatbullyangry
    Security Code: *
    reload, if the code cannot be seen