a b c d e f g h i j k l m n o p q r s t u v w x y z 0-9

Fidaa (2018) Hindi - 1080p - WEB-HD - AVC - AAC-GM Exclusive

  • Views: 41
  • Author: stev
  • Date: 3-10-2018, 13:08
  • Category: South Indian Hindi Dub Movies
  • Rating:
    Description of the movie:
    Fidaa (2018) Hindi - 1080p - WEB-HD - AVC - AAC-GM Exclusive





    Format                      : MPEG-4
    Format profile              : Base Media
    Codec ID                    : isom (isom/iso2/avc1/mp41)
    File size                   : 2.54 GiB
    Duration                    : 2 h 2 min
    Overall bit rate            : 2 972 kb/s
    Writing application         : Lavf58.9.100
    
    Video
    ID                          : 1
    Format                      : AVC
    Format/Info                 : Advanced Video Codec
    Format profile              : High@L4
    Format settings, CABAC      : Yes
    Format settings, RefFrames  : 2 frames
    Codec ID                    : avc1
    Codec ID/Info               : Advanced Video Coding
    Duration                    : 2 h 2 min
    Bit rate                    : 2 840 kb/s
    Width                       : 1 920 pixels
    Height                      : 1 080 pixels
    Display aspect ratio        : 16:9
    Frame rate mode             : Constant
    Frame rate                  : 25.000 FPS
    Color space                 : YUV
    Chroma subsampling          : 4:2:0
    Bit depth                   : 8 bits
    Scan type                   : Progressive
    Bits/(Pixel*Frame)          : 0.055
    Stream size                 : 2.43 GiB (96%)
    Color range                 : Limited
    Color primaries             : BT.709
    Transfer characteristics    : BT.709
    Matrix coefficients         : BT.709
    
    Audio
    ID                          : 2
    Format                      : AAC
    Format/Info                 : Advanced Audio Codec
    Format profile              : LC
    Codec ID                    : 40
    Duration                    : 2 h 2 min
    Bit rate mode               : Constant
    Bit rate                    : 126 kb/s
    Channel(s)                  : 2 channels
    Channel positions           : Front: L R
    Sampling rate               : 44.1 kHz
    Frame rate                  : 43.066 FPS (1024 SPF)
    Compression mode            : Lossy
    Stream size                 : 110 MiB (4%)
    Language                    : English
    Default                     : Yes
    Alternate group             : 1
    
    

    Fidaa (2018) Hindi - 1080p - WEB-HD - AVC - AAC-GM ExclusiveFidaa (2018) Hindi - 1080p - WEB-HD - AVC - AAC-GM ExclusiveFidaa (2018) Hindi - 1080p - WEB-HD - AVC - AAC-GM ExclusiveFidaa (2018) Hindi - 1080p - WEB-HD - AVC - AAC-GM ExclusiveFidaa (2018) Hindi - 1080p - WEB-HD - AVC - AAC-GM ExclusiveFidaa (2018) Hindi - 1080p - WEB-HD - AVC - AAC-GM ExclusiveFidaa (2018) Hindi - 1080p - WEB-HD - AVC - AAC-GM Exclusive

    SINGLE DIRECT FAST LINKS
    http://www.heroupload.us/c55d17577156bd47/Fidaa.2018.Hindi.1080p.WEB-HD.AVC.AAC-GM.mp4


    http://filefloater.com/2AWf/Fidaa.2018.Hindi.1080p.WEB-HD.AVC.AAC-GM.mp4

    700MB LINKS
    
    http://www.heroupload.us/aaafb923d180ad8f/Fidaa.2018.Hindi.1080p.WEB-HD.AVC.AAC-GM.part1.rar
    http://www.heroupload.us/ae617d06c2efbd9b/Fidaa.2018.Hindi.1080p.WEB-HD.AVC.AAC-GM.part2.rar
    http://www.heroupload.us/cfe4ae07f4eabae4/Fidaa.2018.Hindi.1080p.WEB-HD.AVC.AAC-GM.part3.rar
    http://www.heroupload.us/4b71dc023dc052fa/Fidaa.2018.Hindi.1080p.WEB-HD.AVC.AAC-GM.part4.rar


    
    http://filefloater.com/2AWg/Fidaa.2018.Hindi.1080p.WEB-HD.AVC.AAC-GM.part1.rar
    http://filefloater.com/2AWh/Fidaa.2018.Hindi.1080p.WEB-HD.AVC.AAC-GM.part2.rar
    http://filefloater.com/2aVo/Fidaa.2018.Hindi.1080p.WEB-HD.AVC.AAC-GM.part3.rar
    http://filefloater.com/2AWj/Fidaa.2018.Hindi.1080p.WEB-HD.AVC.AAC-GM.part4.rar




    Buy Premium From My Links & Support Me

    Comments

    Add Comment!


    Add comment

    Name:*
    E-Mail:
    Comment:
    • winkwinkedsmileam
      belayfeelfellowlaughing
      lollovenorecourse
      requestsadtonguewassat
      cryingwhatbullyangry
    Security Code: *
    reload, if the code cannot be seen