a b c d e f g h i j k l m n o p q r s t u v w x y z 0-9

Blackmail (2018) 720p BluRay x264 ESub-BollywoodA2z

  • Views: 59
  • Author: stev
  • Date: 8-10-2018, 20:23
  • Category: B / 2018 / Bollywood DVDRips - HDRips
  • Rating:
    Description of the movie:
    Blackmail (2018) 720p BluRay x264 ESub-BollywoodA2z



    General
    Format                                   : Matroska
    Format version                           : Version 4 / Version 2
    File size                                : 1.29 GiB
    Duration                                 : 2 h 18 min
    Overall bit rate                         : 1 339 kb/s
    
    Video
    ID                                       : 1
    Format                                   : AVC
    Format/Info                              : Advanced Video Codec
    Format profile                           : High@L4.1
    Format settings                          : CABAC / 5 Ref Frames
    Format settings, CABAC                   : Yes
    Format settings, RefFrames               : 5 frames
    Codec ID                                 : V_MPEG4/ISO/AVC
    Duration                                 : 2 h 18 min
    Bit rate                                 : 1 200 kb/s
    Width                                    : 1 280 pixels
    Height                                   : 532 pixels
    Display aspect ratio                     : 2.40:1
    Frame rate mode                          : Constant
    Frame rate                               : 24.000 FPS
    Color space                              : YUV
    Chroma subsampling                       : 4:2:0
    Bit depth                                : 8 bits
    Scan type                                : Progressive
    Bits/(Pixel*Frame)                       : 0.073
    Stream size                              : 1.16 GiB (89%)
    Writing library                          : x264 core 155 r2901 7d0ff22
    Default                                  : Yes
    Forced                                   : No
    
    Audio
    ID                                       : 2
    Format                                   : AAC
    Format/Info                              : Advanced Audio Codec
    Format profile                           : LC
    Codec ID                                 : A_AAC-2
    Duration                                 : 2 h 18 min
    Bit rate                                 : 128 kb/s
    Channel(s)                               : 2 channels
    Channel positions                        : Front: L R
    Sampling rate                            : 48.0 kHz
    Frame rate                               : 46.875 FPS (1024 SPF)
    Compression mode                         : Lossy
    Stream size                              : 126 MiB (10%)
    Language                                 : Hindi
    Default                                  : Yes
    Forced                                   : No
    
    Text
    ID                                       : 3
    Format                                   : PGS
    Muxing mode                              : zlib
    Codec ID                                 : S_HDMV/PGS
    Codec ID/Info                            : Picture based subtitle format used on BDs/HD-DVDs
    Duration                                 : 2 h 12 min
    Bit rate                                 : 11.3 kb/s
    Count of elements                        : 3365
    Stream size                              : 10.8 MiB (1%)
    Language                                 : English
    Default                                  : Yes
    Forced                                   : No
    

    Blackmail (2018) 720p BluRay x264 ESub-BollywoodA2zBlackmail (2018) 720p BluRay x264 ESub-BollywoodA2zBlackmail (2018) 720p BluRay x264 ESub-BollywoodA2zBlackmail (2018) 720p BluRay x264 ESub-BollywoodA2zBlackmail (2018) 720p BluRay x264 ESub-BollywoodA2zBlackmail (2018) 720p BluRay x264 ESub-BollywoodA2z

    SINGLE DIRECT FAST LINKS
    http://www.heroupload.us/92752b6d339fd2f1/Blackmail.2018.Hindi.720p.BluRay.x264.ESub-bollywoodA2z.mkv


    
    http://filefloater.com/310C/Blackmail.2018.Hindi.720p.BluRay.x264.ESub-bollywoodA2z.mkv




    Buy Premium From My Links & Support Me

    Comments

    Add Comment!


    Add comment

    Name:*
    E-Mail:
    Comment:
    • winkwinkedsmileam
      belayfeelfellowlaughing
      lollovenorecourse
      requestsadtonguewassat
      cryingwhatbullyangry
    Security Code: *
    reload, if the code cannot be seen