a b c d e f g h i j k l m n o p q r s t u v w x y z 0-9

Fanney Khan (2018) 720p - WEB-HD - AVC - AAC - ESubs-TT Exclusive

  • Views: 55
  • Author: stev
  • Date: 12-10-2018, 00:17
  • Category: Bollywood BluRay - Full HD
  • Rating:
    Description of the movie:
    Fanney Khan (2018) 720p - WEB-HD - AVC - AAC - ESubs-TT Exclusive





    
    Format                      : MPEG-4
    Format profile              : Base Media
    Codec ID                    : isom (mp41)
    File size                   : 2.75 GiB
    Duration                    : 2 h 8 min
    Overall bit rate mode       : Variable
    Overall bit rate            : 3 064 kb/s
    Encoded date                : UTC 2018-10-11 15:32:02
    Tagged date                 : UTC 2018-10-11 15:32:02
    Writing application         : Bandicam 4.2.0.1439 / GDI
    
    Video
    ID                          : 1
    Format                      : AVC
    Format/Info                 : Advanced Video Codec
    Format profile              : Baseline@L4.1
    Format settings, CABAC      : No
    Format settings, RefFrames  : 1 frame
    Codec ID                    : avc1
    Codec ID/Info               : Advanced Video Coding
    Duration                    : 2 h 8 min
    Bit rate                    : 2 962 kb/s
    Width                       : 1 280 pixels
    Height                      : 720 pixels
    Display aspect ratio        : 16:9
    Frame rate mode             : Variable
    Frame rate                  : 23.976 (23976/1000) FPS
    Minimum frame rate          : 7.992 FPS
    Maximum frame rate          : 24.000 FPS
    Color space                 : YUV
    Chroma subsampling          : 4:2:0
    Bit depth                   : 8 bits
    Scan type                   : Progressive
    Bits/(Pixel*Frame)          : 0.134
    Stream size                 : 2.66 GiB (97%)
    Language                    : English
    Encoded date                : UTC 2018-10-11 15:32:02
    Tagged date                 : UTC 2018-10-11 15:32:02
    
    Audio
    ID                          : 2
    Format                      : AAC
    Format/Info                 : Advanced Audio Codec
    Format profile              : LC
    Codec ID                    : 40
    Duration                    : 2 h 8 min
    Bit rate mode               : Variable
    Bit rate                    : 98.3 kb/s
    Maximum bit rate            : 214 kb/s
    Channel(s)                  : 2 channels
    Channel positions           : Front: L R
    Sampling rate               : 48.0 kHz
    Frame rate                  : 46.875 FPS (1024 SPF)
    Compression mode            : Lossy
    Stream size                 : 90.5 MiB (3%)
    Language                    : English
    Encoded date                : UTC 2018-10-11 15:32:02
    Tagged date                 : UTC 2018-10-11 15:32:02
    
    


    Fanney Khan (2018) 720p - WEB-HD - AVC - AAC - ESubs-TT ExclusiveFanney Khan (2018) 720p - WEB-HD - AVC - AAC - ESubs-TT ExclusiveFanney Khan (2018) 720p - WEB-HD - AVC - AAC - ESubs-TT ExclusiveFanney Khan (2018) 720p - WEB-HD - AVC - AAC - ESubs-TT ExclusiveFanney Khan (2018) 720p - WEB-HD - AVC - AAC - ESubs-TT ExclusiveFanney Khan (2018) 720p - WEB-HD - AVC - AAC - ESubs-TT Exclusive

    SINGLE DIRECT FAST LINKS
    http://www.heroupload.us/f18704030b7ecde9/Fanney.Khan.2018.720p.WEB-HD.AVC.AAC.Esubs-TeamTT.Exclusive.mp4


    http://filefloater.com/1KZ7/Fanney.Khan.2018.720p.WEB-HD.AVC.AAC.Esubs-TeamTT.Exclusive.mp4

    700MB LINKS

    
    http://www.heroupload.us/e6bc7693eff1418f/Fanney.Khan.2018.720p.WEB-HD.AVC.AAC.Esubs-TeamTT.Exclusive.part1.rar
    http://www.heroupload.us/aa999f67e1cca5bd/Fanney.Khan.2018.720p.WEB-HD.AVC.AAC.Esubs-TeamTT.Exclusive.part2.rar
    http://www.heroupload.us/14db0892d732d610/Fanney.Khan.2018.720p.WEB-HD.AVC.AAC.Esubs-TeamTT.Exclusive.part3.rar
    http://www.heroupload.us/528f138ae2852ce0/Fanney.Khan.2018.720p.WEB-HD.AVC.AAC.Esubs-TeamTT.Exclusive.part4.rar
    http://www.heroupload.us/f710b35fbd595148/Fanney.Khan.2018.720p.WEB-HD.AVC.AAC.Esubs-TeamTT.Exclusive.part5.rar
    http://www.heroupload.us/cda2e49bf208e61f/Fanney.Khan.2018.720p.WEB-HD.AVC.AAC.Esubs-TeamTT.Exclusive.srt


    
    http://filefloater.com/1KZ8/Fanney.Khan.2018.720p.WEB-HD.AVC.AAC.Esubs-TeamTT.Exclusive.part1.rar
    http://filefloater.com/1KZ9/Fanney.Khan.2018.720p.WEB-HD.AVC.AAC.Esubs-TeamTT.Exclusive.part2.rar
    http://filefloater.com/311S/Fanney.Khan.2018.720p.WEB-HD.AVC.AAC.Esubs-TeamTT.Exclusive.part3.rar
    http://filefloater.com/311T/Fanney.Khan.2018.720p.WEB-HD.AVC.AAC.Esubs-TeamTT.Exclusive.part4.rar
    http://filefloater.com/2B10/Fanney.Khan.2018.720p.WEB-HD.AVC.AAC.Esubs-TeamTT.Exclusive.part5.rar
    http://filefloater.com/2B11/Fanney.Khan.2018.720p.WEB-HD.AVC.AAC.Esubs-TeamTT.Exclusive.srt




    Buy Premium From My Links & Support Me

    Comments

    Add Comment!


    Add comment

    Name:*
    E-Mail:
    Comment:
    • winkwinkedsmileam
      belayfeelfellowlaughing
      lollovenorecourse
      requestsadtonguewassat
      cryingwhatbullyangry
    Security Code: *
    reload, if the code cannot be seen