a b c d e f g h i j k l m n o p q r s t u v w x y z 0-9

Raja Bhaiya (2003) 720p - HD-DVDRip - AVC - AAC-Bollywooda2z

  • Views: 61
  • Author: stev
  • Date: 17-10-2018, 17:19
  • Category: Bollywood DVDRips - HDRips / R / 2003
  • Rating:
    Description of the movie:
    Raja Bhaiya (2003) 720p - HD-DVDRip - AVC - AAC-Bollywooda2z

    Format                      : MPEG-4
    Format profile              : Base Media / Version 2
    Codec ID                    : mp42 (isom/mp42)
    File size                   : 983 MiB
    Duration                    : 2 h 7 min
    Overall bit rate mode       : Variable
    Overall bit rate            : 1 077 kb/s
    Encoded date                : UTC 2018-09-28 06:26:55
    Tagged date                 : UTC 2018-09-28 06:26:55
    gsst                        : 0
    gstd                        : 7654667
    
    Video
    ID                          : 1
    Format                      : AVC
    Format/Info                 : Advanced Video Codec
    Format profile              : Main@L3.1
    Format settings, CABAC      : Yes
    Format settings, RefFrames  : 3 frames
    Codec ID                    : avc1
    Codec ID/Info               : Advanced Video Coding
    Duration                    : 2 h 7 min
    Bit rate                    : 948 kb/s
    Width                       : 1 280 pixels
    Height                      : 720 pixels
    Display aspect ratio        : 16:9
    Frame rate mode             : Constant
    Frame rate                  : 25.000 FPS
    Color space                 : YUV
    Chroma subsampling          : 4:2:0
    Bit depth                   : 8 bits
    Scan type                   : Progressive
    Bits/(Pixel*Frame)          : 0.041
    Stream size                 : 865 MiB (88%)
    Title                       : ISO Media file produced by Google Inc. Created on: 09/27/2018.
    Encoded date                : UTC 2018-09-28 06:26:55
    Tagged date                 : UTC 2018-09-28 06:26:55
    Color range                 : Limited
    Color primaries             : BT.709
    Transfer characteristics    : BT.709
    Matrix coefficients         : BT.709
    
    Audio
    ID                          : 2
    Format                      : AAC
    Format/Info                 : Advanced Audio Codec
    Format profile              : LC
    Codec ID                    : 40
    Duration                    : 2 h 7 min
    Bit rate mode               : Variable
    Bit rate                    : 126 kb/s
    Channel(s)                  : 2 channels
    Channel positions           : Front: L R
    Sampling rate               : 44.1 kHz
    Frame rate                  : 43.066 FPS (1024 SPF)
    Compression mode            : Lossy
    Stream size                 : 115 MiB (12%)
    Title                       : ISO Media file produced by Google Inc. Created on: 09/27/2018.
    Language                    : English
    Encoded date                : UTC 2018-09-28 06:26:55
    Tagged date                 : UTC 2018-09-28 06:26:55
    
    

    Raja Bhaiya (2003) 720p - HD-DVDRip - AVC - AAC-Bollywooda2z
    SINGLE DIRECT FAST LINKS
    http://www.heroupload.us/21d4169903899ce4/Raja.Bhiya.mp4


    
    http://filefloater.com/2B3z/Raja.Bhiya.mp4

    Comments

    billmorRigo
    Author: billmorRigo   26 October 2018 18:00  |  Group: Visitors
    проржался норм

    ---
    Как это можно определить? товары доставка почтой, недорогие товары почтой и https://www.drive2.ru/b/514946376337981476/ орел товары почтой


    --------------------

    Reply        
    flalenpa
    Author: flalenpa   26 October 2018 18:34  |  Group: Visitors
    Извините за то, что вмешиваюсь… Мне знакома эта ситуация. Пишите здесь или в PM.

    ---
    Шикарно, где взять можно? отслежка товара почтой, спортмастер товары почтой а также https://www.drive2.ru/users/kristal88/#blog американские товары почтой


    --------------------

    Reply        
    prepecSl
    Author: prepecSl   26 October 2018 19:10  |  Group: Visitors
    Я думаю, что Вы не правы. Я уверен. Пишите мне в PM, поговорим.

    ---
    Креативненько! товары почтой бижутерия, компания товары почтой а также https://www.drive2.ru/b/514934281710076342/ узбекские товары почтой


    --------------------

    Reply        
    raydropka
    Author: raydropka   27 October 2018 23:05  |  Group: Visitors
    смотрела на большом экране!

    ---
    Я считаю, что Вы допускаете ошибку. Могу это доказать. Пишите мне в PM, пообщаемся. бронхолитин для сушки, станозолол olimp labs отзывы и кломид спортвики stateopros отзывы


    --------------------

    Reply        
    gadocOt
    Author: gadocOt   3 November 2018 06:14  |  Group: Visitors
    Сожалею, что ничем не могу помочь. Надеюсь, Вы найдёте верное решение.

    ---
    Извините, что я вмешиваюсь, но, по-моему, эта тема уже не актуальна. прогулочная коляска fisher price, маркус коляска отзывы и мебель 38 попугаев аксессуары для комнаты подростка


    --------------------

    Reply        

    Add Comment!


    Add comment

    Name:*
    E-Mail:
    Comment:
    • winkwinkedsmileam
      belayfeelfellowlaughing
      lollovenorecourse
      requestsadtonguewassat
      cryingwhatbullyangry
    Security Code: *
    reload, if the code cannot be seen