a b c d e f g h i j k l m n o p q r s t u v w x y z 0-9

Naseeb (1997) HD-DVDRip - x264 - DD5.1-Bollywooda2z

  • Views: 84
  • Author: stev
  • Date: 17-10-2018, 17:28
  • Category: Bollywood DVDRips - HDRips / N / 1997
  • Rating:
    Description of the movie:
    Naseeb (1997) HD-DVDRip - x264 - DD5.1-Bollywooda2z

    Format                      : Matroska
    Format version              : Version 4 / Version 2
    File size                   : 1.45 GiB
    Duration                    : 2 h 18 min
    Overall bit rate            : 1 504 kb/s
    Encoded date                : UTC 2014-01-09 20:00:18
    Writing application         : mkvmerge v6.5.0 ('Isn't she lovely') built on Oct 20 2013 12:50:05
    Writing library             : libebml v1.3.0 + libmatroska v1.4.1
    
    Video
    ID                          : 1
    Format                      : AVC
    Format/Info                 : Advanced Video Codec
    Format profile              : High@L3.1
    Format settings, CABAC      : Yes
    Format settings, RefFrames  : 5 frames
    Codec ID                    : V_MPEG4/ISO/AVC
    Duration                    : 2 h 18 min
    Bit rate                    : 1 054 kb/s
    Width                       : 720 pixels
    Height                      : 480 pixels
    Display aspect ratio        : 3:2
    Frame rate mode             : Constant
    Frame rate                  : 23.976 (24000/1001) FPS
    Color space                 : YUV
    Chroma subsampling          : 4:2:0
    Bit depth                   : 8 bits
    Scan type                   : Progressive
    Bits/(Pixel*Frame)          : 0.127
    Stream size                 : 1 014 MiB (68%)
    Writing library             : x264 core 130 r2273 b3065e6
    Encoding settings           : cabac=1 / ref=5 / deblock=1:-1:-1 / analyse=0x3:0x113 / me=umh / subme=8 / psy=1 / psy_rd=1.00:0.15 / mixed_ref=1 / me_range=16 / chroma_me=1 / trellis=1 / 8x8dct=1 / cqm=0 / deadzone=21,11 / fast_pskip=0 / chroma_qp_offset=-3 / threads=12 / lookahead_threads=2 / sliced_threads=0 / nr=0 / decimate=1 / interlaced=0 / bluray_compat=0 / constrained_intra=0 / bframes=3 / b_pyramid=2 / b_adapt=2 / b_bias=0 / direct=3 / weightb=1 / open_gop=0 / weightp=2 / keyint=240 / keyint_min=24 / scenecut=40 / intra_refresh=0 / rc_lookahead=50 / rc=2pass / mbtree=1 / bitrate=1054 / ratetol=1.0 / qcomp=0.60 / qpmin=0 / qpmax=69 / qpstep=4 / cplxblur=20.0 / qblur=0.5 / vbv_maxrate=17500 / vbv_bufsize=17500 / nal_hrd=none / ip_ratio=1.40 / aq=1:1.00
    Language                    : English
    Default                     : Yes
    Forced                      : No
    Color range                 : Limited
    Color primaries             : BT.601 NTSC
    Transfer characteristics    : BT.709
    Matrix coefficients         : BT.601
    
    Audio
    ID                          : 2
    Format                      : AC-3
    Format/Info                 : Audio Coding 3
    Format settings, Endianness : Big
    Codec ID                    : A_AC3
    Duration                    : 2 h 18 min
    Bit rate mode               : Constant
    Bit rate                    : 448 kb/s
    Channel(s)                  : 6 channels
    Channel positions           : Front: L C R, Side: L R, LFE
    Sampling rate               : 48.0 kHz
    Frame rate                  : 31.250 FPS (1536 SPF)
    Bit depth                   : 16 bits
    Compression mode            : Lossy
    Stream size                 : 443 MiB (30%)
    Service kind                : Complete Main
    Default                     : Yes
    Forced                      : No
    
    


    Naseeb (1997) HD-DVDRip - x264 - DD5.1-Bollywooda2z
    SINGLE DIRECT FAST LINKS
    
    http://www.heroupload.us/ddc601e03790c736/Naseeb.1997.Hindi.DvDRip.x264.DD5.1-BollywoodA2z.mkv


    
    http://filefloater.com/2B3x/Naseeb.1997.Hindi.DvDRip.x264.DD5.1-BollywoodA2z.mkv

    Comments

    keyquiSi
    Author: keyquiSi   26 October 2018 00:03  |  Group: Visitors
    Прошу прощения, это не совсем то, что мне нужно. Есть другие варианты?

    ---
    Извините, что я вмешиваюсь, но мне необходимо немного больше информации. земляная муха борьба, растения мухоловки и как избавиться от мошек личинки дрозофилы фото


    --------------------

    Reply        
    billmorRigo
    Author: billmorRigo   26 October 2018 18:05  |  Group: Visitors
    Это мне не подходит. Может, есть ещё варианты?

    ---
    ничего особенного товары почтой даром, заказы товара почтой и https://www.drive2.ru/users/susan5/#blog aliexpress товары почтой


    --------------------

    Reply        
    flalenpa
    Author: flalenpa   26 October 2018 18:38  |  Group: Visitors
    Согласен, это забавная информация

    ---
    Извиняюсь, ничем не могу помочь. Я думаю, Вы найдёте верное решение. Не отчаивайтесь. товары почтой отслеживание, товары почтой журнал и https://www.drive2.ru/b/514939779268215113/ заказать товар почтой


    --------------------

    Reply        
    Author: AngelaSed   5 November 2018 16:37  |  Group: Guests
    Я считаю, что Вы не правы. Предлагаю это обсудить. Пишите мне в PM.
    Привет родные мои

    выбор линолеума

    Reply        

    Add Comment!


    Add comment

    Name:*
    E-Mail:
    Comment:
    • winkwinkedsmileam
      belayfeelfellowlaughing
      lollovenorecourse
      requestsadtonguewassat
      cryingwhatbullyangry
    Security Code: *
    reload, if the code cannot be seen