a b c d e f g h i j k l m n o p q r s t u v w x y z 0-9

Satyameva Jayate (2018) 1080p WEB-DL H264 DDP5.1 - NbT

  • Views: 55
  • Author: stev
  • Date: 19-10-2018, 01:23
  • Category: Bollywood BluRay - Full HD
  • Rating:
    Description of the movie:
    Satyameva Jayate (2018) 1080p WEB-DL H264 DDP5.1 - NbT





    Format                      : Matroska
    Format version              : Version 4
    File size                   : 6.33 GiB
    Duration                    : 2 h 19 min
    Overall bit rate mode       : Variable
    Overall bit rate            : 6 487 kb/s
    Encoded date                : UTC 2018-10-18 16:31:52
    Writing application         : mkvmerge v27.0.0 ('Metropolis') 64-bit
    Writing library             : libebml v1.3.6 + libmatroska v1.4.9
    Cover                       : Yes
    Attachments                 : cover.jpg
    
    Video
    ID                          : 1
    Format                      : AVC
    Format/Info                 : Advanced Video Codec
    Format profile              : High@L4
    Format settings             : CABAC / 4 Ref Frames
    Format settings, CABAC      : Yes
    Format settings, ReFrames   : 4 frames
    Codec ID                    : V_MPEG4/ISO/AVC
    Duration                    : 2 h 19 min
    Bit rate mode               : Variable
    Bit rate                    : 5 845 kb/s
    Maximum bit rate            : 15.0 Mb/s
    Width                       : 1 920 pixels
    Height                      : 800 pixels
    Display aspect ratio        : 2.40:1
    Frame rate mode             : Constant
    Frame rate                  : 24.000 FPS
    Color space                 : YUV
    Chroma subsampling          : 4:2:0
    Bit depth                   : 8 bits
    Scan type                   : Progressive
    Bits/(Pixel*Frame)          : 0.159
    Stream size                 : 5.70 GiB (90%)
    Default                     : Yes
    Forced                      : No
    Color range                 : Limited
    Color primaries             : BT.709
    Transfer characteristics    : BT.709
    Matrix coefficients         : BT.709
    
    Audio
    ID                          : 2
    Format                      : E-AC-3
    Format/Info                 : Enhanced AC-3
    Commercial name             : Dolby Digital Plus
    Codec ID                    : A_EAC3
    Duration                    : 2 h 19 min
    Bit rate mode               : Constant
    Bit rate                    : 640 kb/s
    Channel(s)                  : 6 channels
    Channel layout              : L R C LFE Ls Rs
    Sampling rate               : 48.0 kHz
    Frame rate                  : 31.250 FPS (1536 SPF)
    Compression mode            : Lossy
    Stream size                 : 639 MiB (10%)
    Title                       : Hindi
    Language                    : Hindi
    Service kind                : Complete Main
    Default                     : No
    Forced                      : No
    
    Text
    ID                          : 3
    Format                      : UTF-8
    Codec ID                    : S_TEXT/UTF8
    Codec ID/Info               : UTF-8 Plain Text
    Duration                    : 2 h 12 min
    Bit rate                    : 42 b/s
    Count of elements           : 1306
    Stream size                 : 41.0 KiB (0%)
    Title                       : English [SDH]
    Language                    : English
    Default                     : No
    Forced                      : No
    
    Menu
    00:00:00.000                : en:Commercial
    00:01:05.000                : en:Studio Logos, Thank you Credits
    00:03:07.000                : en:Scene 3
    00:17:40.000                : en:Scene 4
    00:28:29.000                : en:Scene 5
    00:43:59.000                : en:Scene 6
    01:00:56.000                : en:Scene 7
    01:09:37.000                : en:Scene 8
    01:22:03.000                : en:Scene 9
    01:35:10.000                : en:Scene 10
    01:44:53.000                : en:Scene 11
    01:58:24.000                : en:Scene 12
    02:17:06.000                : en:End Credits


    Satyameva Jayate (2018) 1080p WEB-DL H264 DDP5.1 - NbTSatyameva Jayate (2018) 1080p WEB-DL H264 DDP5.1 - NbTSatyameva Jayate (2018) 1080p WEB-DL H264 DDP5.1 - NbTSatyameva Jayate (2018) 1080p WEB-DL H264 DDP5.1 - NbTSatyameva Jayate (2018) 1080p WEB-DL H264 DDP5.1 - NbT



    SINGLE DIRECT FAST LINKS

    http://www.heroupload.us/2bc1e2303711e317/Satyameva.Jayate.2018.1080p.WEB-DL.DDP5.1.H264-NbT.mkv


    1GB LINKS
    
    http://www.heroupload.us/d9ef51f87f1e850d/Satyameva.Jayate.2018.1080p.WEB-DL.DDP5.1.H264-NbT.part1.rar
    http://www.heroupload.us/febab7d87a33c4a3/Satyameva.Jayate.2018.1080p.WEB-DL.DDP5.1.H264-NbT.part2.rar
    http://www.heroupload.us/30a6408fbc9fe171/Satyameva.Jayate.2018.1080p.WEB-DL.DDP5.1.H264-NbT.part3.rar
    http://www.heroupload.us/d9acf899770098a6/Satyameva.Jayate.2018.1080p.WEB-DL.DDP5.1.H264-NbT.part4.rar
    http://www.heroupload.us/b7376744331b6644/Satyameva.Jayate.2018.1080p.WEB-DL.DDP5.1.H264-NbT.part5.rar
    http://www.heroupload.us/65e1b0d23724d2e5/Satyameva.Jayate.2018.1080p.WEB-DL.DDP5.1.H264-NbT.part6.rar
    http://www.heroupload.us/85c6134ccefa2f23/Satyameva.Jayate.2018.1080p.WEB-DL.DDP5.1.H264-NbT.part7.rar


    
    http://filefloater.com/V1a/Satyameva.Jayate.2018.1080p.WEB-DL.DDP5.1.H264-NbT.part1.rar
    http://filefloater.com/V1b/Satyameva.Jayate.2018.1080p.WEB-DL.DDP5.1.H264-NbT.part2.rar
    http://filefloater.com/V1c/Satyameva.Jayate.2018.1080p.WEB-DL.DDP5.1.H264-NbT.part3.rar
    http://filefloater.com/V1d/Satyameva.Jayate.2018.1080p.WEB-DL.DDP5.1.H264-NbT.part4.rar
    http://filefloater.com/V1e/Satyameva.Jayate.2018.1080p.WEB-DL.DDP5.1.H264-NbT.part5.rar
    http://filefloater.com/V1f/Satyameva.Jayate.2018.1080p.WEB-DL.DDP5.1.H264-NbT.part6.rar
    http://filefloater.com/V1g/Satyameva.Jayate.2018.1080p.WEB-DL.DDP5.1.H264-NbT.part7.rar




    Buy Premium From My Links & Support Me

    Comments

    billmorRigo
    Author: billmorRigo   26 October 2018 18:11  |  Group: Visitors
    Нет.

    ---
    Так долго ждал и вот -=) товары иваново почтой, товары почтой тюмень а также https://www.drive2.ru/users/kristal88/#blog рукоделие товары почтой


    --------------------

    Reply        
    flalenpa
    Author: flalenpa   26 October 2018 18:45  |  Group: Visitors
    Я извиняюсь, но, по-моему, Вы ошибаетесь. Предлагаю это обсудить. Пишите мне в PM, поговорим.

    ---
    бесспорно-впечатляет! почта получение товара, сумки товары почтой или https://www.drive2.ru/users/kristal88/#blog товары почтой рб


    --------------------

    Reply        
    prepecSl
    Author: prepecSl   26 October 2018 19:22  |  Group: Visitors
    Эта великолепная фраза придется как раз кстати

    ---
    Отличный вопрос почта получение товара, отслеживание почта товары или https://www.drive2.ru/users/susan5/#blog распродажа товары почтой


    --------------------

    Reply        
    Author: AngelaSed   4 November 2018 22:52  |  Group: Guests
    Какие слова... супер
    Вы абсолютно правы. В этом что-то грызть и мне кажется это хорошая мысль. Я согласен с Вами.

    ремонт квартир

    Reply        

    Add Comment!


    Add comment

    Name:*
    E-Mail:
    Comment:
    • winkwinkedsmileam
      belayfeelfellowlaughing
      lollovenorecourse
      requestsadtonguewassat
      cryingwhatbullyangry
    Security Code: *
    reload, if the code cannot be seen