a b c d e f g h i j k l m n o p q r s t u v w x y z 0-9

Awe! (2018) 720p - HDTVRip - x264 [Dual Audio][Telugu+Line+Hindi-Orginal]

  • Views: 48
  • Author: stev
  • Date: 4-11-2018, 23:10
  • Category: South Indian Hindi Dub Movies
  • Rating:
    Description of the movie:
    Awe! (2018) 720p - HDTVRip - x264 [Dual Audio][Telugu+Line+Hindi-Orginal]





    Format                      : Matroska
    Format version              : Version 4 / Version 2
    File size                   : 1.30 GiB
    Duration                    : 1 h 46 min
    Overall bit rate mode       : Variable
    Overall bit rate            : 1 754 kb/s
    Encoded date                : UTC 2018-11-04 05:28:11
    Writing application         : mkvmerge v7.1.0 ('Good Love') 32bit built on Jul 27 2014 12:59:18
    Writing library             : libebml v1.3.0 + libmatroska v1.4.1
    
    Video
    ID                          : 1
    Format                      : AVC
    Format/Info                 : Advanced Video Codec
    Format profile              : High@L3.1
    Format settings, CABAC      : Yes
    Format settings, RefFrames  : 4 frames
    Codec ID                    : V_MPEG4/ISO/AVC
    Duration                    : 1 h 46 min
    Bit rate                    : 1 532 kb/s
    Width                       : 1 280 pixels
    Height                      : 536 pixels
    Display aspect ratio        : 2.40:1
    Frame rate mode             : Constant
    Frame rate                  : 25.000 FPS
    Color space                 : YUV
    Chroma subsampling          : 4:2:0
    Bit depth                   : 8 bits
    Scan type                   : Progressive
    Bits/(Pixel*Frame)          : 0.089
    Stream size                 : 1.14 GiB (87%)
    Writing library             : x264 core 155 r2901 7d0ff22
    Encoding settings           : cabac=1 / ref=3 / deblock=1:0:0 / analyse=0x3:0x113 / me=hex / subme=7 / psy=1 / psy_rd=1.00:0.00 / mixed_ref=1 / me_range=16 / chroma_me=1 / trellis=1 / 8x8dct=1 / cqm=0 / deadzone=21,11 / fast_pskip=1 / chroma_qp_offset=-2 / threads=17 / lookahead_threads=2 / sliced_threads=0 / nr=0 / decimate=1 / interlaced=0 / bluray_compat=0 / constrained_intra=0 / bframes=3 / b_pyramid=2 / b_adapt=1 / b_bias=0 / direct=1 / weightb=1 / open_gop=0 / weightp=2 / keyint=250 / keyint_min=25 / scenecut=40 / intra_refresh=0 / rc_lookahead=40 / rc=2pass / mbtree=1 / bitrate=1532 / ratetol=1.0 / qcomp=0.60 / qpmin=0 / qpmax=69 / qpstep=4 / cplxblur=20.0 / qblur=0.5 / ip_ratio=1.40 / aq=1:1.00
    Language                    : Telugu
    Default                     : Yes
    Forced                      : No
    
    Audio #1
    ID                          : 2
    Format                      : MPEG Audio
    Format version              : Version 1
    Format profile              : Layer 3
    Mode                        : Joint stereo
    Mode extension              : MS Stereo
    Codec ID                    : A_MPEG/L3
    Codec ID/Hint               : MP3
    Duration                    : 1 h 46 min
    Bit rate mode               : Variable
    Bit rate                    : 128 kb/s
    Channel(s)                  : 2 channels
    Sampling rate               : 44.1 kHz
    Frame rate                  : 38.281 FPS (1152 SPF)
    Compression mode            : Lossy
    Stream size                 : 93.5 MiB (7%)
    Writing library             : LAME3.99r
    Encoding settings           : -m j -V 4 -q 3 -lowpass 17 --abr 128
    Language                    : Telugu
    Default                     : Yes
    Forced                      : No
    
    Audio #2
    ID                          : 3
    Format                      : MPEG Audio
    Format version              : Version 1
    Format profile              : Layer 3
    Mode                        : Joint stereo
    Mode extension              : MS Stereo
    Codec ID                    : A_MPEG/L3
    Codec ID/Hint               : MP3
    Duration                    : 1 h 46 min
    Bit rate mode               : Variable
    Bit rate                    : 96.0 kb/s
    Channel(s)                  : 2 channels
    Sampling rate               : 44.1 kHz
    Frame rate                  : 38.281 FPS (1152 SPF)
    Compression mode            : Lossy
    Stream size                 : 73.2 MiB (5%)
    Writing library             : LAME3.99r
    Encoding settings           : -m j -V 4 -q 3 -lowpass 15.1 --abr 96
    Language                    : Hindi
    Default                     : No
    Forced                      : No
    
    


    Awe! (2018) 720p - HDTVRip - x264 [Dual Audio][Telugu+Line+Hindi-Orginal]Awe! (2018) 720p - HDTVRip - x264 [Dual Audio][Telugu+Line+Hindi-Orginal]Awe! (2018) 720p - HDTVRip - x264 [Dual Audio][Telugu+Line+Hindi-Orginal]Awe! (2018) 720p - HDTVRip - x264 [Dual Audio][Telugu+Line+Hindi-Orginal]Awe! (2018) 720p - HDTVRip - x264 [Dual Audio][Telugu+Line+Hindi-Orginal]Awe! (2018) 720p - HDTVRip - x264 [Dual Audio][Telugu+Line+Hindi-Orginal]Awe! (2018) 720p - HDTVRip - x264 [Dual Audio][Telugu+Line+Hindi-Orginal]Awe! (2018) 720p - HDTVRip - x264 [Dual Audio][Telugu+Line+Hindi-Orginal]Awe! (2018) 720p - HDTVRip - x264 [Dual Audio][Telugu+Line+Hindi-Orginal]


    SINGLE DIRECT FAST LINKS
    
    http://www.heroupload.us/f3e2278e99f8ecff/Awe.2018.HDTV.720p.Telugu.line+Hindi-TMV.mkv


    
    http://filefloater.com/V6p/Awe.2018.HDTV.720p.Telugu.line+Hindi-TMV.mkv





    Buy Premium From My Links & Support Me

    Comments

    esatfeS
    Author: esatfeS   6 November 2018 05:50  |  Group: Visitors
    есть некоторые нормальные

    ---
    Да, действительно. онлайн займ чита, онлайн займ екб а также займы онлайн срочно гарант займ онлайн


    --------------------

    Reply        
    sauswitkn
    Author: sauswitkn   6 November 2018 06:06  |  Group: Visitors
    Я не совсем понимаю, что Вы имеете в виду?

    ---
    По моему мнению Вы ошибаетесь. Давайте обсудим. Пишите мне в PM. игра престолов играть, игра марио играть а также игры игры новые играть


    --------------------

    Reply        
    caraWeby
    Author: caraWeby   6 November 2018 06:21  |  Group: Visitors
    Как раз в тему, прикольненько

    ---
    Извините за то, что вмешиваюсь… Мне знакома эта ситуация. Давайте обсудим. скачать мод машины, скачать фнаф мод а также скачать моды на american truck simulator моды омси скачать


    --------------------

    Reply        
    mawagei
    Author: mawagei   6 November 2018 06:38  |  Group: Visitors
    туфта

    ---
    Вы не правы. Могу отстоять свою позицию. Пишите мне в PM, поговорим. кроссовки рибок зимние детские, женские зимние кроссовки с мехом рибок или http://www.reebokclassic.ru/muzhskie-krossovki-reebok/krossovki-zimnie-reebok-c
    lassic-leather-white-030k-z.html
    зимние высокие кроссовки мужские рибок


    --------------------

    Reply        
    boutedtrit
    Author: boutedtrit   8 November 2018 21:15  |  Group: Visitors
    Это частный случай..

    ---
    Да уж, спасибо форум квадроциклов cf moto, stels benelli 600 характеристики или какие бывают квадроциклы регулировка вариатора снегохода буран


    --------------------

    Reply        
    namaEa
    Author: namaEa   10 November 2018 19:20  |  Group: Visitors
    Великолепная идея и своевременно

    ---
    Поздравляю, эта блестящая мысль придется как раз кстати рецепт мази грибок, мази проти грибка и где купить micolock micolock-salve цинковая мазь против грибка


    --------------------

    Reply        

    Add Comment!


    Add comment

    Name:*
    E-Mail:
    Comment:
    • winkwinkedsmileam
      belayfeelfellowlaughing
      lollovenorecourse
      requestsadtonguewassat
      cryingwhatbullyangry
    Security Code: *
    reload, if the code cannot be seen