a b c d e f g h i j k l m n o p q r s t u v w x y z 0-9

Gangaa Jamunaa Saraswathi (1988) 720p - HD-DVDRip - AVC - AAC-Bollywooda2z

  • Views: 18
  • Author: stev
  • Date: 7-11-2018, 16:12
  • Category: G / 1988 / Bollywood DVDRips - HDRips
  • Rating:
    Description of the movie:
    Gangaa Jamunaa Saraswathi (1988) 720p - HD-DVDRip - AVC - AAC-Bollywooda2z



    Format                      : MPEG-4
    Format profile              : Base Media / Version 2
    Codec ID                    : mp42 (isom/mp42)
    File size                   : 1.52 GiB
    Duration                    : 3 h 7 min
    Overall bit rate mode       : Variable
    Overall bit rate            : 1 162 kb/s
    Encoded date                : UTC 2018-10-27 23:09:27
    Tagged date                 : UTC 2018-10-27 23:09:27
    gsst                        : 0
    gstd                        : 11259216
    
    Video
    ID                          : 1
    Format                      : AVC
    Format/Info                 : Advanced Video Codec
    Format profile              : Main@L3.1
    Format settings, CABAC      : Yes
    Format settings, RefFrames  : 3 frames
    Codec ID                    : avc1
    Codec ID/Info               : Advanced Video Coding
    Duration                    : 3 h 7 min
    Bit rate                    : 1 033 kb/s
    Width                       : 1 280 pixels
    Height                      : 720 pixels
    Display aspect ratio        : 16:9
    Frame rate mode             : Constant
    Frame rate                  : 25.000 FPS
    Color space                 : YUV
    Chroma subsampling          : 4:2:0
    Bit depth                   : 8 bits
    Scan type                   : Progressive
    Bits/(Pixel*Frame)          : 0.045
    Stream size                 : 1.35 GiB (89%)
    Title                       : ISO Media file produced by Google Inc. Created on: 10/27/2018.
    Encoded date                : UTC 2018-10-27 23:09:27
    Tagged date                 : UTC 2018-10-27 23:09:27
    Color range                 : Limited
    Color primaries             : BT.709
    Transfer characteristics    : BT.709
    Matrix coefficients         : BT.709
    
    Audio
    ID                          : 2
    Format                      : AAC
    Format/Info                 : Advanced Audio Codec
    Format profile              : LC
    Codec ID                    : 40
    Duration                    : 3 h 7 min
    Bit rate mode               : Variable
    Bit rate                    : 126 kb/s
    Channel(s)                  : 2 channels
    Channel positions           : Front: L R
    Sampling rate               : 44.1 kHz
    Frame rate                  : 43.066 FPS (1024 SPF)
    Compression mode            : Lossy
    Stream size                 : 169 MiB (11%)
    Title                       : ISO Media file produced by Google Inc. Created on: 10/27/2018.
    Language                    : English
    Encoded date                : UTC 2018-10-27 23:09:27
    Tagged date                 : UTC 2018-10-27 23:09:27
    
    

    Gangaa Jamunaa Saraswathi (1988) 720p - HD-DVDRip - AVC - AAC-Bollywooda2z

    SINGLE DIRECT FAST LINKS
    
    http://www.heroupload.us/48cbba5a9a08c73f/Gangaa.Jamunaa.Saraswathi.720p-Bollywooda2z.mp4


    
    http://filefloater.com/1L9K/Gangaa.Jamunaa.Saraswathi.720p-Bollywooda2z.mp4





    Buy Premium From My Links & Support Me

    Comments

    namaEa
    Author: namaEa   10 November 2018 19:23  |  Group: Visitors
    ой.. не магу больше)))

    ---
    Вы ошибаетесь. Могу отстоять свою позицию. грибок пяток мази, мазь от грибков и micolock цена micolock-salve.ru мазь против грибков


    --------------------

    Reply        

    Add Comment!


    Add comment

    Name:*
    E-Mail:
    Comment:
    • winkwinkedsmileam
      belayfeelfellowlaughing
      lollovenorecourse
      requestsadtonguewassat
      cryingwhatbullyangry
    Security Code: *
    reload, if the code cannot be seen