a b c d e f g h i j k l m n o p q r s t u v w x y z 0-9

Janatha Hotel (2018) Telugu - Proper - 1080p - WEB-HD - AVC - AAC-TMV

  • Views: 30
  • Author: stev
  • Date: 12-11-2018, 15:27
  • Category: Telugu Movies
  • Rating:
    Description of the movie:
    Janatha Hotel (2018) Telugu - Proper - 1080p - WEB-HD - AVC - AAC-TMV






    Format                      : MPEG-4
    Format profile              : Base Media
    Codec ID                    : isom (isom/iso2/avc1/mp41)
    File size                   : 1.35 GiB
    Duration                    : 2 h 20 min
    Overall bit rate            : 1 377 kb/s
    
    Video
    ID                          : 1
    Format                      : AVC
    Format/Info                 : Advanced Video Codec
    Format profile              : High@L4
    Format settings, CABAC      : Yes
    Format settings, RefFrames  : 3 frames
    Codec ID                    : avc1
    Codec ID/Info               : Advanced Video Coding
    Duration                    : 2 h 20 min
    Duration_FirstFrame         : -41 ms
    Bit rate                    : 1 243 kb/s
    Width                       : 1 920 pixels
    Height                      : 1 080 pixels
    Display aspect ratio        : 16:9
    Frame rate mode             : Variable
    Frame rate                  : 24.000 FPS
    Minimum frame rate          : 24.000 FPS
    Maximum frame rate          : 24.094 FPS
    Color space                 : YUV
    Chroma subsampling          : 4:2:0
    Bit depth                   : 8 bits
    Scan type                   : Progressive
    Bits/(Pixel*Frame)          : 0.025
    Stream size                 : 1.22 GiB (90%)
    Color range                 : Limited
    Color primaries             : BT.709
    Transfer characteristics    : BT.709
    Matrix coefficients         : BT.709
    
    Audio
    ID                          : 2
    Format                      : AAC
    Format/Info                 : Advanced Audio Codec
    Format profile              : LC
    Codec ID                    : 40
    Duration                    : 2 h 20 min
    Bit rate mode               : Constant
    Bit rate                    : 128 kb/s
    Channel(s)                  : 2 channels
    Channel positions           : Front: L R
    Sampling rate               : 44.1 kHz
    Frame rate                  : 43.066 FPS (1024 SPF)
    Compression mode            : Lossy
    Stream size                 : 128 MiB (9%)
    Default                     : Yes
    Alternate group             : 1
    
    


    Janatha Hotel (2018) Telugu - Proper - 1080p - WEB-HD - AVC - AAC-TMVJanatha Hotel (2018) Telugu - Proper - 1080p - WEB-HD - AVC - AAC-TMVJanatha Hotel (2018) Telugu - Proper - 1080p - WEB-HD - AVC - AAC-TMVJanatha Hotel (2018) Telugu - Proper - 1080p - WEB-HD - AVC - AAC-TMVJanatha Hotel (2018) Telugu - Proper - 1080p - WEB-HD - AVC - AAC-TMVJanatha Hotel (2018) Telugu - Proper - 1080p - WEB-HD - AVC - AAC-TMV

    SINGLE DIRECT FAST LINKS
    
    https://www.heroupload.us/ef268892020c417f/Janatha.Hotel.2018.Telugu.Proper.Org.Ver.WEB-HD.1080p.AVC.AAC-TMV.mp4


    
    http://filefloater.com/Var/Janatha.Hotel.2018.Telugu.Proper.Org.Ver.WEB-HD.1080p.AVC.AAC-TMV.mp4





    Buy Premium From My Links & Support Me

    Comments

    Add Comment!


    Add comment

    Name:*
    E-Mail:
    Comment:
    • winkwinkedsmileam
      belayfeelfellowlaughing
      lollovenorecourse
      requestsadtonguewassat
      cryingwhatbullyangry
    Security Code: *
    reload, if the code cannot be seen