a b c d e f g h i j k l m n o p q r s t u v w x y z 0-9

Stree (2018) 1080p - Untouched - HDTV - AVC - AAC 5.1-TT Exclusive

  • Views: 101
  • Author: stev
  • Date: 18-11-2018, 18:12
  • Category: Bollywood BluRay - Full HD
  • Rating:
    Description of the movie:
    Stree (2018) 1080p - Untouched - HDTV - AVC - AAC 5.1-TT Exclusive




    Format                      : Matroska
    Format version              : Version 4 / Version 2
    File size                   : 7.98 GiB
    Duration                    : 2 h 37 min
    Overall bit rate            : 7 246 kb/s
    Encoded date                : UTC 2018-11-18 12:09:43
    Writing application         : mkvmerge v28.2.0 ('The Awakening') 64-bit
    Writing library             : libebml v1.3.6 + libmatroska v1.4.9 / Lavf57.84.100
    
    Video
    ID                          : 1
    Format                      : AVC
    Format/Info                 : Advanced Video Codec
    Format profile              : Main@L4
    Format settings, CABAC      : Yes
    Format settings, RefFrames  : 2 frames
    Codec ID                    : V_MPEG4/ISO/AVC
    Duration                    : 2 h 37 min
    Bit rate mode               : Constant
    Bit rate                    : 6 737 kb/s
    Nominal bit rate            : 8 000 kb/s
    Width                       : 1 920 pixels
    Height                      : 1 080 pixels
    Display aspect ratio        : 16:9
    Frame rate mode             : Constant
    Frame rate                  : 23.976 (24000/1001) FPS
    Color space                 : YUV
    Chroma subsampling          : 4:2:0
    Bit depth                   : 8 bits
    Scan type                   : Progressive
    Bits/(Pixel*Frame)          : 0.136
    Stream size                 : 7.42 GiB (93%)
    Default                     : Yes
    Forced                      : No
    Color range                 : Limited
    Matrix coefficients         : BT.601
    
    Audio
    ID                          : 2
    Format                      : AAC
    Format/Info                 : Advanced Audio Codec
    Format profile              : LC
    Codec ID                    : A_AAC
    Duration                    : 2 h 37 min
    Bit rate                    : 505 kb/s
    Channel(s)                  : 6 channels
    Channel positions           : Front: L C R, Side: L R, LFE
    Sampling rate               : 48.0 kHz
    Frame rate                  : 46.875 FPS (1024 SPF)
    Compression mode            : Lossy
    Stream size                 : 570 MiB (7%)
    Title                       : Track1
    Default                     : Yes
    Forced                      : No
    
    


    Stree (2018) 1080p - Untouched - HDTV - AVC - AAC 5.1-TT ExclusiveStree (2018) 1080p - Untouched - HDTV - AVC - AAC 5.1-TT ExclusiveStree (2018) 1080p - Untouched - HDTV - AVC - AAC 5.1-TT ExclusiveStree (2018) 1080p - Untouched - HDTV - AVC - AAC 5.1-TT ExclusiveStree (2018) 1080p - Untouched - HDTV - AVC - AAC 5.1-TT ExclusiveStree (2018) 1080p - Untouched - HDTV - AVC - AAC 5.1-TT Exclusive

    SINGLE DIRECT FAST LINKS

    https://www.heroupload.us/5a4329d9c5f3e1da/Stree.2018.1080p.Untouched.HDTV.AVC.AAC.5.1.TT.Exclusive.mkv


    1GB LINKS

    
    https://www.heroupload.us/f19c2403f6ff1bb1/Stree.2018.1080p.Untouched.HDTV.AVC.AAC.5.1.TT.Exclusive.part01.rar
    https://www.heroupload.us/a9c3ce48a6d9a1d0/Stree.2018.1080p.Untouched.HDTV.AVC.AAC.5.1.TT.Exclusive.part02.rar
    https://www.heroupload.us/571e4f68423ccffc/Stree.2018.1080p.Untouched.HDTV.AVC.AAC.5.1.TT.Exclusive.part03.rar
    https://www.heroupload.us/109cfe8f244a0028/Stree.2018.1080p.Untouched.HDTV.AVC.AAC.5.1.TT.Exclusive.part04.rar
    https://www.heroupload.us/96edcefa0ace9436/Stree.2018.1080p.Untouched.HDTV.AVC.AAC.5.1.TT.Exclusive.part05.rar
    https://www.heroupload.us/99329b6cced3457d/Stree.2018.1080p.Untouched.HDTV.AVC.AAC.5.1.TT.Exclusive.part06.rar
    https://www.heroupload.us/e7baca972dc3484d/Stree.2018.1080p.Untouched.HDTV.AVC.AAC.5.1.TT.Exclusive.part07.rar
    https://www.heroupload.us/e14b26fdf3b3e975/Stree.2018.1080p.Untouched.HDTV.AVC.AAC.5.1.TT.Exclusive.part08.rar


    
    https://filefloater.com/1LeF/Stree.2018.1080p.Untouched.HDTV.AVC.AAC.5.1.TT.Exclusive.part01.rar
    https://filefloater.com/1LeG/Stree.2018.1080p.Untouched.HDTV.AVC.AAC.5.1.TT.Exclusive.part02.rar
    https://filefloater.com/1LeH/Stree.2018.1080p.Untouched.HDTV.AVC.AAC.5.1.TT.Exclusive.part03.rar
    https://filefloater.com/1LeI/Stree.2018.1080p.Untouched.HDTV.AVC.AAC.5.1.TT.Exclusive.part04.rar
    https://filefloater.com/1LeJ/Stree.2018.1080p.Untouched.HDTV.AVC.AAC.5.1.TT.Exclusive.part05.rar
    https://filefloater.com/1LeK/Stree.2018.1080p.Untouched.HDTV.AVC.AAC.5.1.TT.Exclusive.part06.rar
    https://filefloater.com/1LeL/Stree.2018.1080p.Untouched.HDTV.AVC.AAC.5.1.TT.Exclusive.part07.rar
    https://filefloater.com/1LeM/Stree.2018.1080p.Untouched.HDTV.AVC.AAC.5.1.TT.Exclusive.part08.rar



    Buy Premium From My Links & Support Me

    Comments

    Add Comment!


    Add comment

    Name:*
    E-Mail:
    Comment:
    • winkwinkedsmileam
      belayfeelfellowlaughing
      lollovenorecourse
      requestsadtonguewassat
      cryingwhatbullyangry
    Security Code: *
    reload, if the code cannot be seen