a b c d e f g h i j k l m n o p q r s t u v w x y z 0-9

5 Weddings (2018) 720p - HDRip - x264 - ESubs [Dual Audio][Hindi-Line Audio+English]

  • Views: 62
  • Author: stev
  • Date: 21-11-2018, 22:35
  • Category: Bollywood Latest Movies CAM/pDVD/DVDscr
  • Rating:
    Description of the movie:
    5 Weddings (2018) 720p - HDRip - x264 - ESubs [Dual Audio][Hindi-Line Audio+English]






    Format                      : Matroska
    Format version              : Version 4 / Version 2
    File size                   : 1.45 GiB
    Duration                    : 1 h 30 min
    Overall bit rate            : 2 290 kb/s
    Encoded date                : UTC 2018-11-20 12:33:44
    Writing application         : mkvmerge v7.8.0 ('River Man') 64bit built on Mar 27 2015 16:31:37
    Writing library             : libebml v1.3.1 + libmatroska v1.4.2
    
    Video
    ID                          : 1
    Format                      : AVC
    Format/Info                 : Advanced Video Codec
    Format profile              : High@L5.1
    Format settings, CABAC      : Yes
    Format settings, RefFrames  : 5 frames
    Codec ID                    : V_MPEG4/ISO/AVC
    Duration                    : 1 h 30 min
    Bit rate                    : 2 049 kb/s
    Width                       : 1 280 pixels
    Height                      : 688 pixels
    Display aspect ratio        : 1.85:1
    Frame rate mode             : Constant
    Frame rate                  : 23.976 (24000/1001) FPS
    Color space                 : YUV
    Chroma subsampling          : 4:2:0
    Bit depth                   : 8 bits
    Scan type                   : Progressive
    Bits/(Pixel*Frame)          : 0.097
    Stream size                 : 1.27 GiB (87%)
    Writing library             : x264 core 152 r2851 ba24899
    Encoding settings           : cabac=1 / ref=5 / deblock=1:0:0 / analyse=0x3:0x113 / me=hex / subme=8 / psy=1 / psy_rd=1.00:0.00 / mixed_ref=1 / me_range=16 / chroma_me=1 / trellis=2 / 8x8dct=1 / cqm=0 / deadzone=21,11 / fast_pskip=1 / chroma_qp_offset=-2 / threads=21 / lookahead_threads=3 / sliced_threads=0 / nr=0 / decimate=1 / interlaced=0 / bluray_compat=0 / constrained_intra=0 / bframes=3 / b_pyramid=2 / b_adapt=1 / b_bias=0 / direct=3 / weightb=1 / open_gop=0 / weightp=2 / keyint=240 / keyint_min=23 / scenecut=40 / intra_refresh=0 / rc_lookahead=50 / rc=abr / mbtree=1 / bitrate=2049 / ratetol=1.0 / qcomp=0.60 / qpmin=0 / qpmax=69 / qpstep=4 / vbv_maxrate=300000 / vbv_bufsize=300000 / nal_hrd=none / filler=0 / ip_ratio=1.40 / aq=1:1.00
    Language                    : English
    Default                     : Yes
    Forced                      : No
    
    Audio #1
    ID                          : 2
    Format                      : MPEG Audio
    Format version              : Version 1
    Format profile              : Layer 3
    Mode                        : Joint stereo
    Mode extension              : MS Stereo
    Codec ID                    : A_MPEG/L3
    Codec ID/Hint               : MP3
    Duration                    : 1 h 30 min
    Bit rate mode               : Constant
    Bit rate                    : 128 kb/s
    Channel(s)                  : 2 channels
    Sampling rate               : 44.1 kHz
    Frame rate                  : 38.281 FPS (1152 SPF)
    Compression mode            : Lossy
    Stream size                 : 83.0 MiB (6%)
    Language                    : Hindi
    Default                     : Yes
    Forced                      : No
    
    Audio #2
    ID                          : 3
    Format                      : AC-3
    Format/Info                 : Audio Coding 3
    Format settings, Endianness : Big
    Codec ID                    : A_AC3
    Duration                    : 1 h 30 min
    Bit rate mode               : Constant
    Bit rate                    : 160 kb/s
    Channel(s)                  : 6 channels
    Channel positions           : Front: L C R, Side: L R, LFE
    Sampling rate               : 44.1 kHz
    Frame rate                  : 28.711 FPS (1536 SPF)
    Bit depth                   : 16 bits
    Compression mode            : Lossy
    Stream size                 : 104 MiB (7%)
    Language                    : English
    Service kind                : Complete Main
    Default                     : No
    Forced                      : No
    
    Text
    ID                          : 4
    Format                      : UTF-8
    Codec ID                    : S_TEXT/UTF8
    Codec ID/Info               : UTF-8 Plain Text
    Duration                    : 1 h 27 min
    Bit rate                    : 70 b/s
    Count of elements           : 1601
    Stream size                 : 45.0 KiB (0%)
    Language                    : English
    Default                     : No
    Forced                      : No
    
    


    5 Weddings (2018) 720p - HDRip - x264 - ESubs [Dual Audio][Hindi-Line Audio+English]5 Weddings (2018) 720p - HDRip - x264 - ESubs [Dual Audio][Hindi-Line Audio+English]5 Weddings (2018) 720p - HDRip - x264 - ESubs [Dual Audio][Hindi-Line Audio+English]5 Weddings (2018) 720p - HDRip - x264 - ESubs [Dual Audio][Hindi-Line Audio+English]


    SINGLE DIRECT FAST LINKS
    https://www.heroupload.us/e36fb46adfee8686/5.Weddings.2018.720p.Proper.HDRip.Hindi.Line.Audio+English.AC3.5.1.ESubs-MTR.mkv


    
    https://filefloater.com/Ve7/5.Weddings.2018.720p.Proper.HDRip.Hindi.Line.Audio+English.AC3.5.1.ESubs-MTR.mkv




    Buy Premium From My Links & Support Me

    Comments

    Add Comment!


    Add comment

    Name:*
    E-Mail:
    Comment:
    • winkwinkedsmileam
      belayfeelfellowlaughing
      lollovenorecourse
      requestsadtonguewassat
      cryingwhatbullyangry
    Security Code: *
    reload, if the code cannot be seen