a b c d e f g h i j k l m n o p q r s t u v w x y z 0-9

Pataakha (2018) 1080p - WEB-DL - H264 - DDP 5.1 - NbT Exclusive

  • Views: 53
  • Author: stev
  • Date: 24-11-2018, 15:06
  • Category: Bollywood BluRay - Full HD
  • Rating:
    Description of the movie:
    Pataakha (2018) 1080p - WEB-DL - H264 - DDP 5.1 - NbT Exclusive





    Format                      : Matroska
    Format version              : Version 4
    File size                   : 7.75 GiB
    Duration                    : 2 h 11 min
    Overall bit rate mode       : Variable
    Overall bit rate            : 8 466 kb/s
    Encoded date                : UTC 2018-11-24 06:58:00
    Writing application         : mkvmerge v28.0.0 ('Voice In My Head') 64-bit
    Writing library             : libebml v1.3.6 + libmatroska v1.4.9
    Cover                       : Yes
    Attachments                 : cover.jpg
    
    Video
    ID                          : 1
    Format                      : AVC
    Format/Info                 : Advanced Video Codec
    Format profile              : High@L4
    Format settings             : CABAC / 4 Ref Frames
    Format settings, CABAC      : Yes
    Format settings, ReFrames   : 4 frames
    Codec ID                    : V_MPEG4/ISO/AVC
    Duration                    : 2 h 11 min
    Bit rate mode               : Variable
    Bit rate                    : 7 824 kb/s
    Maximum bit rate            : 15.0 Mb/s
    Width                       : 1 920 pixels
    Height                      : 800 pixels
    Display aspect ratio        : 2.40:1
    Frame rate mode             : Constant
    Frame rate                  : 24.000 FPS
    Color space                 : YUV
    Chroma subsampling          : 4:2:0
    Bit depth                   : 8 bits
    Scan type                   : Progressive
    Bits/(Pixel*Frame)          : 0.212
    Stream size                 : 7.17 GiB (92%)
    Default                     : Yes
    Forced                      : No
    Color range                 : Limited
    Color primaries             : BT.709
    Transfer characteristics    : BT.709
    Matrix coefficients         : BT.709
    
    Audio
    ID                          : 2
    Format                      : E-AC-3
    Format/Info                 : Enhanced AC-3
    Commercial name             : Dolby Digital Plus
    Codec ID                    : A_EAC3
    Duration                    : 2 h 11 min
    Bit rate mode               : Constant
    Bit rate                    : 640 kb/s
    Channel(s)                  : 6 channels
    Channel layout              : L R C LFE Ls Rs
    Sampling rate               : 48.0 kHz
    Frame rate                  : 31.250 FPS (1536 SPF)
    Compression mode            : Lossy
    Stream size                 : 600 MiB (8%)
    Title                       : Hindi
    Language                    : Hindi
    Service kind                : Complete Main
    Default                     : No
    Forced                      : No
    
    Text
    ID                          : 3
    Format                      : UTF-8
    Codec ID                    : S_TEXT/UTF8
    Codec ID/Info               : UTF-8 Plain Text
    Duration                    : 2 h 4 min
    Bit rate                    : 38 b/s
    Count of elements           : 1613
    Stream size                 : 35.3 KiB (0%)
    Title                       : English [SDH]
    Language                    : English
    Default                     : No
    Forced                      : No


    Pataakha (2018) 1080p - WEB-DL - H264 - DDP 5.1 - NbT ExclusivePataakha (2018) 1080p - WEB-DL - H264 - DDP 5.1 - NbT ExclusivePataakha (2018) 1080p - WEB-DL - H264 - DDP 5.1 - NbT ExclusivePataakha (2018) 1080p - WEB-DL - H264 - DDP 5.1 - NbT ExclusivePataakha (2018) 1080p - WEB-DL - H264 - DDP 5.1 - NbT ExclusivePataakha (2018) 1080p - WEB-DL - H264 - DDP 5.1 - NbT Exclusive


    SINGLE DIRECT FAST LINKS

    https://www.heroupload.us/e36adbce06eaea77/Pataakha.2018.Hindi.1080p.AMZN.WEB-DL.H264.DDP5.1-NbT.mkv


    1GB LINKS

    
    https://www.heroupload.us/2ec719e36f176d56/Pataakha.2018.Hindi.1080p.AMZN.WEB-DL.H264.DDP5.1-NbT.part1.rar
    https://www.heroupload.us/5b8e3b3d055d4da7/Pataakha.2018.Hindi.1080p.AMZN.WEB-DL.H264.DDP5.1-NbT.part2.rar
    https://www.heroupload.us/3bbb0ee4484ad653/Pataakha.2018.Hindi.1080p.AMZN.WEB-DL.H264.DDP5.1-NbT.part3.rar
    https://www.heroupload.us/05408bc64a238c04/Pataakha.2018.Hindi.1080p.AMZN.WEB-DL.H264.DDP5.1-NbT.part4.rar
    https://www.heroupload.us/412467bd876e3521/Pataakha.2018.Hindi.1080p.AMZN.WEB-DL.H264.DDP5.1-NbT.part5.rar
    https://www.heroupload.us/f345adbc3c59c504/Pataakha.2018.Hindi.1080p.AMZN.WEB-DL.H264.DDP5.1-NbT.part6.rar
    https://www.heroupload.us/2960fced5cc2e8ef/Pataakha.2018.Hindi.1080p.AMZN.WEB-DL.H264.DDP5.1-NbT.part7.rar
    https://www.heroupload.us/0511223427ca1f7a/Pataakha.2018.Hindi.1080p.AMZN.WEB-DL.H264.DDP5.1-NbT.part8.rar


    https://filefloater.com/1Lhz/Pataakha.2018.Hindi.1080p.AMZN.WEB-DL.H264.DDP5.1-NbT.part1.rar
    https://filefloater.com/1LhA/Pataakha.2018.Hindi.1080p.AMZN.WEB-DL.H264.DDP5.1-NbT.part2.rar
    https://filefloater.com/1lgH/Pataakha.2018.Hindi.1080p.AMZN.WEB-DL.H264.DDP5.1-NbT.part3.rar
    https://filefloater.com/1lgI/Pataakha.2018.Hindi.1080p.AMZN.WEB-DL.H264.DDP5.1-NbT.part4.rar
    https://filefloater.com/1lgJ/Pataakha.2018.Hindi.1080p.AMZN.WEB-DL.H264.DDP5.1-NbT.part5.rar
    https://filefloater.com/1lgK/Pataakha.2018.Hindi.1080p.AMZN.WEB-DL.H264.DDP5.1-NbT.part6.rar
    https://filefloater.com/1lgL/Pataakha.2018.Hindi.1080p.AMZN.WEB-DL.H264.DDP5.1-NbT.part7.rar
    https://filefloater.com/1LhG/Pataakha.2018.Hindi.1080p.AMZN.WEB-DL.H264.DDP5.1-NbT.part8.rar





    Buy Premium From My Links & Support Me

    Comments

    Add Comment!


    Add comment

    Name:*
    E-Mail:
    Comment:
    • winkwinkedsmileam
      belayfeelfellowlaughing
      lollovenorecourse
      requestsadtonguewassat
      cryingwhatbullyangry
    Security Code: *
    reload, if the code cannot be seen