a b c d e f g h i j k l m n o p q r s t u v w x y z 0-9

2.0 (2018) Hindi - 720p - PreDVDRip - x264 - MP3-MTR

  • Views: 48
  • Author: stev
  • Date: 29-11-2018, 21:40
  • Category: Bollywood Latest Movies CAM/pDVD/DVDscr
  • Rating:
    Description of the movie:
    2.0 (2018) Hindi - 720p - PreDVDRip - x264 - MP3-MTR






    Format                      : Matroska
    Format version              : Version 4 / Version 2
    File size                   : 1.37 GiB
    Duration                    : 2 h 20 min
    Overall bit rate            : 1 393 kb/s
    Encoded date                : UTC 2018-11-29 15:42:29
    Writing application         : mkvmerge v7.8.0 ('River Man') 64bit built on Mar 27 2015 16:31:37
    Writing library             : libebml v1.3.1 + libmatroska v1.4.2
    
    Video
    ID                          : 1
    Format                      : AVC
    Format/Info                 : Advanced Video Codec
    Format profile              : High@L5.1
    Format settings, CABAC      : Yes
    Format settings, RefFrames  : 4 frames
    Codec ID                    : V_MPEG4/ISO/AVC
    Duration                    : 2 h 20 min
    Bit rate                    : 1 321 kb/s
    Width                       : 1 280 pixels
    Height                      : 544 pixels
    Display aspect ratio        : 2.35:1
    Frame rate mode             : Constant
    Frame rate                  : 25.000 FPS
    Color space                 : YUV
    Chroma subsampling          : 4:2:0
    Bit depth                   : 8 bits
    Scan type                   : Progressive
    Bits/(Pixel*Frame)          : 0.076
    Stream size                 : 1.30 GiB (95%)
    Writing library             : x264 core 152 r2851 ba24899
    Encoding settings           : cabac=1 / ref=2 / deblock=1:0:0 / analyse=0x3:0x113 / me=hex / subme=4 / psy=1 / psy_rd=1.00:0.00 / mixed_ref=0 / me_range=16 / chroma_me=1 / trellis=1 / 8x8dct=1 / cqm=0 / deadzone=21,11 / fast_pskip=1 / chroma_qp_offset=0 / threads=17 / lookahead_threads=4 / sliced_threads=0 / nr=0 / decimate=1 / interlaced=0 / bluray_compat=0 / constrained_intra=0 / bframes=3 / b_pyramid=2 / b_adapt=1 / b_bias=0 / direct=1 / weightb=1 / open_gop=0 / weightp=1 / keyint=250 / keyint_min=25 / scenecut=40 / intra_refresh=0 / rc_lookahead=20 / rc=abr / mbtree=1 / bitrate=1321 / ratetol=1.0 / qcomp=0.60 / qpmin=0 / qpmax=69 / qpstep=4 / vbv_maxrate=300000 / vbv_bufsize=300000 / nal_hrd=none / filler=0 / ip_ratio=1.40 / aq=1:1.00
    Language                    : English
    Default                     : Yes
    Forced                      : No
    
    Audio
    ID                          : 2
    Format                      : MPEG Audio
    Format version              : Version 2
    Format profile              : Layer 3
    Mode                        : Joint stereo
    Mode extension              : Intensity Stereo + MS Stereo
    Codec ID                    : A_MPEG/L3
    Codec ID/Hint               : MP3
    Duration                    : 2 h 20 min
    Bit rate mode               : Constant
    Bit rate                    : 64.0 kb/s
    Channel(s)                  : 2 channels
    Sampling rate               : 22.05 kHz
    Frame rate                  : 38.281 FPS (576 SPF)
    Compression mode            : Lossy
    Stream size                 : 64.0 MiB (5%)
    Language                    : English
    Default                     : Yes
    Forced                      : No
    
    


    2.0 (2018) Hindi - 720p - PreDVDRip - x264 - MP3-MTR2.0 (2018) Hindi - 720p - PreDVDRip - x264 - MP3-MTR2.0 (2018) Hindi - 720p - PreDVDRip - x264 - MP3-MTR2.0 (2018) Hindi - 720p - PreDVDRip - x264 - MP3-MTR2.0 (2018) Hindi - 720p - PreDVDRip - x264 - MP3-MTR2.0 (2018) Hindi - 720p - PreDVDRip - x264 - MP3-MTR2.0 (2018) Hindi - 720p - PreDVDRip - x264 - MP3-MTR2.0 (2018) Hindi - 720p - PreDVDRip - x264 - MP3-MTR

    MTR Advertisement included
    SINGLE DIRECT FAST LINKS
    
    https://www.heroupload.us/86ad13d9a51f1b12/2.0.2018.Hindi.720p.PreDVDRip.x264.MP3-MTR.mkv


    
    https://filefloater.com/Vhd/2.0.2018.Hindi.720p.PreDVDRip.x264.MP3-MTR.mkv


    Buy Premium From My Links & Support Me

    Comments

    Add Comment!


    Add comment

    Name:*
    E-Mail:
    Comment:
    • winkwinkedsmileam
      belayfeelfellowlaughing
      lollovenorecourse
      requestsadtonguewassat
      cryingwhatbullyangry
    Security Code: *
    reload, if the code cannot be seen