a b c d e f g h i j k l m n o p q r s t u v w x y z 0-9

Ishqeria (2018) 720p - HDRip - x264 - DD5.1-BollywoodA2z

  • Views: 17
  • Author: stev
  • Date: 29-12-2018, 16:19
  • Category: I / 2018 / Bollywood BluRay - Full HD
  • Rating:
    Description of the movie:
    Ishqeria (2018) 720p - HDRip - x264 - DD5.1-BollywoodA2z



    Format                                   : Matroska
    Format version                           : Version 4
    File size                                : 1.09 GiB
    Duration                                 : 1 h 57 min
    Overall bit rate                         : 1 330 kb/s
    Encoded date                             : UTC 2018-12-29 20:34:34
    Writing application                      : mkvmerge v29.0.0 ('Like It Or Not') 32-bit
    Writing library                          : libebml v1.3.6 + libmatroska v1.4.9
    
    Video
    ID                                       : 1
    Format                                   : AVC
    Format/Info                              : Advanced Video Codec
    Format profile                           : High@L3.1
    Format settings                          : CABAC / 4 Ref Frames
    Format settings, CABAC                   : Yes
    Format settings, RefFrames               : 4 frames
    Codec ID                                 : V_MPEG4/ISO/AVC
    Duration                                 : 1 h 57 min
    Bit rate                                 : 1 216 kb/s
    Width                                    : 1 280 pixels
    Height                                   : 536 pixels
    Display aspect ratio                     : 2.40:1
    Frame rate mode                          : Constant
    Frame rate                               : 24.000 FPS
    Color space                              : YUV
    Chroma subsampling                       : 4:2:0
    Bit depth                                : 8 bits
    Scan type                                : Progressive
    Bits/(Pixel*Frame)                       : 0.074
    Stream size                              : 1 010 MiB (90%)
    Writing library                          : x264 core 155 r2901 7d0ff22
    Encoding settings                        : cabac=1 / ref=3 / deblock=1:0:0 / analyse=0x3:0x113 / me=hex / subme=7 / psy=1 / psy_rd=1.00:0.00 / mixed_ref=1 / me_range=16 / chroma_me=1 / trellis=1 / 8x8dct=1 / cqm=0 / deadzone=21,11 / fast_pskip=1 / chroma_qp_offset=-2 / threads=17 / lookahead_threads=2 / sliced_threads=0 / nr=0 / decimate=1 / interlaced=0 / bluray_compat=0 / constrained_intra=0 / bframes=3 / b_pyramid=2 / b_adapt=1 / b_bias=0 / direct=1 / weightb=1 / open_gop=0 / weightp=2 / keyint=240 / keyint_min=24 / scenecut=40 / intra_refresh=0 / rc_lookahead=40 / rc=abr / mbtree=1 / bitrate=1216 / ratetol=1.0 / qcomp=0.60 / qpmin=0 / qpmax=69 / qpstep=4 / ip_ratio=1.40 / aq=1:1.00
    Language                                 : Hindi
    Default                                  : Yes
    Forced                                   : No
    
    Audio
    ID                                       : 2
    Format                                   : AC-3
    Format/Info                              : Audio Coding 3
    Commercial name                          : Dolby Digital
    Codec ID                                 : A_AC3
    Duration                                 : 1 h 57 min
    Bit rate mode                            : Constant
    Bit rate                                 : 128 kb/s
    Channel(s)                               : 6 channels
    Channel layout                           : L R C LFE Ls Rs
    Sampling rate                            : 44.1 kHz
    Frame rate                               : 28.711 FPS (1536 SPF)
    Bit depth                                : 16 bits
    Compression mode                         : Lossy
    Stream size                              : 108 MiB (10%)
    Language                                 : Hindi
    Service kind                             : Complete Main
    Default                                  : Yes
    Forced                                   : No
    
    Text
    ID                                       : 3
    Format                                   : UTF-8
    Codec ID                                 : S_TEXT/UTF8
    Codec ID/Info                            : UTF-8 Plain Text
    Duration                                 : 1 h 55 min
    Bit rate                                 : 55 b/s
    Count of elements                        : 1396
    Stream size                              : 47.1 KiB (0%)
    Language                                 : English
    Default                                  : No
    Forced                                   : No



    Ishqeria (2018) 720p - HDRip - x264 - DD5.1-BollywoodA2zIshqeria (2018) 720p - HDRip - x264 - DD5.1-BollywoodA2z
    Ishqeria (2018) 720p - HDRip - x264 - DD5.1-BollywoodA2zIshqeria (2018) 720p - HDRip - x264 - DD5.1-BollywoodA2zIshqeria (2018) 720p - HDRip - x264 - DD5.1-BollywoodA2zIshqeria (2018) 720p - HDRip - x264 - DD5.1-BollywoodA2zIshqeria (2018) 720p - HDRip - x264 - DD5.1-BollywoodA2zIshqeria (2018) 720p - HDRip - x264 - DD5.1-BollywoodA2z



    SINGLE DIRECT FAST LINKS

    https://www.heroupload.us/8c365ecd620f2d34/Ishqeria.2018.Hindi.HDRip.720p.x264.DD5.1.ESub-BollywoodA2z.mkv
    



    Buy Premium From My Links & Support Me

    Comments

    Add Comment!


    Add comment

    Name:*
    E-Mail:
    Comment:
    • winkwinkedsmileam
      belayfeelfellowlaughing
      lollovenorecourse
      requestsadtonguewassat
      cryingwhatbullyangry
    Security Code: *
    reload, if the code cannot be seen