a b c d e f g h i j k l m n o p q r s t u v w x y z 0-9

SARKAR (2018) Telugu (Original Version) 700MB - 1CDRip - HDTV-Rip - x264 - MP3-TMV

  • Views: 34
  • Author: stev
  • Date: 28-01-2019, 03:59
  • Category: Telugu Movies
  • Rating:
    Description of the movie:
    SARKAR (2018) Telugu (Original Version) 700MB - 1CDRip - HDTV-Rip - x264 - MP3-TMV





    Format                                   : AVI
    Format/Info                              : Audio Video Interleave
    File size                                : 696 MiB
    Duration                                 : 2 h 34 min
    Overall bit rate                         : 630 kb/s
    
    Video
    ID                                       : 0
    Format                                   : MPEG-4 Visual
    Format profile                           : Simple@L3
    Format settings, BVOP                    : No
    Format settings, QPel                    : No
    Format settings, GMC                     : No warppoints
    Format settings, Matrix                  : Default (H.263)
    Codec ID                                 : XVID
    Codec ID/Hint                            : XviD
    Duration                                 : 2 h 34 min
    Bit rate                                 : 520 kb/s
    Width                                    : 720 pixels
    Height                                   : 300 pixels
    Display aspect ratio                     : 2.40:1
    Frame rate                               : 25.000 FPS
    Color space                              : YUV
    Chroma subsampling                       : 4:2:0
    Bit depth                                : 8 bits
    Scan type                                : Progressive
    Compression mode                         : Lossy
    Bits/(Pixel*Frame)                       : 0.096
    Stream size                              : 575 MiB (83%)
    Writing library                          : XviD 1.2.1 (UTC 2008-12-04)
    
    Audio
    ID                                       : 1
    Format                                   : MPEG Audio
    Format version                           : Version 1
    Format profile                           : Layer 3
    Format settings                          : Joint stereo / MS Stereo
    Codec ID                                 : 55
    Codec ID/Hint                            : MP3
    Duration                                 : 2 h 34 min
    Bit rate mode                            : Constant
    Bit rate                                 : 96.0 kb/s
    Channel(s)                               : 2 channels
    Sampling rate                            : 32.0 kHz
    Compression mode                         : Lossy
    Stream size                              : 106 MiB (15%)
    Alignment                                : Aligned on interleaves
    Interleave, duration                     : 36  ms (0.90 video frame)
    Writing library                          : LAME3.98.2
    
    


    SINGLE DIRECT FAST LINKS

    
    https://www.heroupload.com/124255edd88cd12e/SARKAR.2018.Telugu.HDTV-Rip.XviD.700MB.MP3-TMV.avi



    Buy Premium From My Links & Support Me

    Comments

    Add Comment!


    Add comment

    Name:*
    E-Mail:
    Comment:
    • winkwinkedsmileam
      belayfeelfellowlaughing
      lollovenorecourse
      requestsadtonguewassat
      cryingwhatbullyangry
    Security Code: *
    reload, if the code cannot be seen