a b c d e f g h i j k l m n o p q r s t u v w x y z 0-9

No. 1 Dilwala (Vunnadhi Okate Zindagi) (2019) Hindi - 1080p - WEB-HD - AVC - AAC-GM

  • Views: 19
  • Author: stev
  • Date: 2-02-2019, 00:55
  • Category: South Indian Hindi Dub Movies
  • Rating:
    Description of the movie:
    No. 1 Dilwala (Vunnadhi Okate Zindagi) (2019) Hindi - 1080p - WEB-HD - AVC - AAC-GM





    Format                                   : MPEG-4
    Format profile                           : Base Media
    Codec ID                                 : isom (isom/iso2/avc1/mp41)
    File size                                : 2.50 GiB
    Duration                                 : 2 h 4 min
    Overall bit rate                         : 2 876 kb/s
    Writing application                      : Lavf58.9.100
    
    Video
    ID                                       : 1
    Format                                   : AVC
    Format/Info                              : Advanced Video Codec
    Format profile                           : High@L4
    Format settings                          : CABAC / 3 Ref Frames
    Format settings, CABAC                   : Yes
    Format settings, RefFrames               : 3 frames
    Codec ID                                 : avc1
    Codec ID/Info                            : Advanced Video Coding
    Duration                                 : 2 h 4 min
    Bit rate                                 : 2 742 kb/s
    Width                                    : 1 920 pixels
    Height                                   : 1 080 pixels
    Display aspect ratio                     : 16:9
    Frame rate mode                          : Constant
    Frame rate                               : 25.000 FPS
    Color space                              : YUV
    Chroma subsampling                       : 4:2:0
    Bit depth                                : 8 bits
    Scan type                                : Progressive
    Bits/(Pixel*Frame)                       : 0.053
    Stream size                              : 2.38 GiB (95%)
    Color range                              : Limited
    Color primaries                          : BT.709
    Transfer characteristics                 : BT.709
    Matrix coefficients                      : BT.709
    Codec configuration box                  : avcC
    
    Audio
    ID                                       : 2
    Format                                   : AAC LC
    Format/Info                              : Advanced Audio Codec Low Complexity
    Codec ID                                 : mp4a-40-2
    Duration                                 : 2 h 4 min
    Bit rate mode                            : Constant
    Bit rate                                 : 128 kb/s
    Channel(s)                               : 2 channels
    Channel layout                           : L R
    Sampling rate                            : 44.1 kHz
    Frame rate                               : 43.066 FPS (1024 SPF)
    Compression mode                         : Lossy
    Stream size                              : 114 MiB (4%)
    Language                                 : English
    Default                                  : Yes
    Alternate group                          : 1
    
    



    No. 1 Dilwala (Vunnadhi Okate Zindagi) (2019) Hindi - 1080p - WEB-HD - AVC - AAC-GMNo. 1 Dilwala (Vunnadhi Okate Zindagi) (2019) Hindi - 1080p - WEB-HD - AVC - AAC-GMNo. 1 Dilwala (Vunnadhi Okate Zindagi) (2019) Hindi - 1080p - WEB-HD - AVC - AAC-GMNo. 1 Dilwala (Vunnadhi Okate Zindagi) (2019) Hindi - 1080p - WEB-HD - AVC - AAC-GMNo. 1 Dilwala (Vunnadhi Okate Zindagi) (2019) Hindi - 1080p - WEB-HD - AVC - AAC-GMNo. 1 Dilwala (Vunnadhi Okate Zindagi) (2019) Hindi - 1080p - WEB-HD - AVC - AAC-GMNo. 1 Dilwala (Vunnadhi Okate Zindagi) (2019) Hindi - 1080p - WEB-HD - AVC - AAC-GM

    SINGLE DIRECT FAST LINKS

    https://www.heroupload.com/55979c3fe5198613/No.1.Dilwala-Vunnadhi.Okate.Zindagi.2019.1080p.WEB-HD.AVC.AAC-GM.mp4


    700MB LINKS

    
    https://www.heroupload.com/3da1efc7bd5a72a8/No.1.Dilwala-Vunnadhi.Okate.Zindagi.2019.1080p.WEB-HD.AVC.AAC-GM.part1.rar
    https://www.heroupload.com/5c8edff276dd9f7f/No.1.Dilwala-Vunnadhi.Okate.Zindagi.2019.1080p.WEB-HD.AVC.AAC-GM.part2.rar
    https://www.heroupload.com/00c58872c01696c1/No.1.Dilwala-Vunnadhi.Okate.Zindagi.2019.1080p.WEB-HD.AVC.AAC-GM.part3.rar
    https://www.heroupload.com/95411cade704eb2c/No.1.Dilwala-Vunnadhi.Okate.Zindagi.2019.1080p.WEB-HD.AVC.AAC-GM.part4.rar


    Buy Premium From My Links & Support Me

    Comments

    Add Comment!


    Add comment

    Name:*
    E-Mail:
    Comment:
    • winkwinkedsmileam
      belayfeelfellowlaughing
      lollovenorecourse
      requestsadtonguewassat
      cryingwhatbullyangry
    Security Code: *
    reload, if the code cannot be seen