a b c d e f g h i j k l m n o p q r s t u v w x y z 0-9

The Return of Abhimanyu (Irumbu Thirai) (2019) Hindi - 1080p - WEB-HD - AVC - AAC-GM

  • Views: 14
  • Author: stev
  • Date: 10-02-2019, 23:31
  • Category: South Indian Hindi Dub Movies
  • Rating:
    Description of the movie:
    The Return of Abhimanyu (Irumbu Thirai) (2019) Hindi - 1080p - WEB-HD - AVC - AAC-GM





    Format                                   : MPEG-4
    Format profile                           : Base Media
    Codec ID                                 : isom (isom/iso2/avc1/mp41)
    File size                                : 2.77 GiB
    Duration                                 : 2 h 23 min
    Overall bit rate                         : 2 772 kb/s
    Writing application                      : Lavf58.9.100
    
    Video
    ID                                       : 1
    Format                                   : AVC
    Format/Info                              : Advanced Video Codec
    Format profile                           : High@L4
    Format settings                          : CABAC / 3 Ref Frames
    Format settings, CABAC                   : Yes
    Format settings, RefFrames               : 3 frames
    Codec ID                                 : avc1
    Codec ID/Info                            : Advanced Video Coding
    Duration                                 : 2 h 23 min
    Bit rate                                 : 2 639 kb/s
    Width                                    : 1 920 pixels
    Height                                   : 1 080 pixels
    Display aspect ratio                     : 16:9
    Frame rate mode                          : Constant
    Frame rate                               : 25.000 FPS
    Color space                              : YUV
    Chroma subsampling                       : 4:2:0
    Bit depth                                : 8 bits
    Scan type                                : Progressive
    Bits/(Pixel*Frame)                       : 0.051
    Stream size                              : 2.64 GiB (95%)
    Color range                              : Limited
    Color primaries                          : BT.709
    Transfer characteristics                 : BT.709
    Matrix coefficients                      : BT.709
    Codec configuration box                  : avcC
    
    Audio
    ID                                       : 2
    Format                                   : AAC LC
    Format/Info                              : Advanced Audio Codec Low Complexity
    Codec ID                                 : mp4a-40-2
    Duration                                 : 2 h 23 min
    Bit rate mode                            : Constant
    Bit rate                                 : 128 kb/s
    Channel(s)                               : 2 channels
    Channel layout                           : L R
    Sampling rate                            : 44.1 kHz
    Frame rate                               : 43.066 FPS (1024 SPF)
    Compression mode                         : Lossy
    Stream size                              : 131 MiB (5%)
    Language                                 : English
    Default                                  : Yes
    Alternate group                          : 1
    
    


    The Return of Abhimanyu (Irumbu Thirai) (2019) Hindi - 1080p - WEB-HD - AVC - AAC-GM
    SINGLE DIRECT FAST LINKS

    https://www.heroupload.com/220e4b9b363c73ec/The.Return.of.Abhimanyu.Irumbu.Thirai.2019.1080p.WEB-HD.AVC.AAC-GM.mp4


    700MB LINKS

    
    https://www.heroupload.com/87548a946534a44a/The.Return.of.Abhimanyu.Irumbu.Thirai.2019.1080p.WEB-HD.AVC.AAC-GM.part1.rar
    https://www.heroupload.com/ce6355ad2728511f/The.Return.of.Abhimanyu.Irumbu.Thirai.2019.1080p.WEB-HD.AVC.AAC-GM.part2.rar
    https://www.heroupload.com/67aab342e5c49597/The.Return.of.Abhimanyu.Irumbu.Thirai.2019.1080p.WEB-HD.AVC.AAC-GM.part3.rar
    https://www.heroupload.com/68d709ee412d3379/The.Return.of.Abhimanyu.Irumbu.Thirai.2019.1080p.WEB-HD.AVC.AAC-GM.part4.rar
    https://www.heroupload.com/f6e0d2def69af411/The.Return.of.Abhimanyu.Irumbu.Thirai.2019.1080p.WEB-HD.AVC.AAC-GM.part5.rar


    Buy Premium From My Links & Support Me

    Comments

    Add Comment!


    Add comment

    Name:*
    E-Mail:
    Comment:
    • winkwinkedsmileam
      belayfeelfellowlaughing
      lollovenorecourse
      requestsadtonguewassat
      cryingwhatbullyangry
    Security Code: *
    reload, if the code cannot be seen