a b c d e f g h i j k l m n o p q r s t u v w x y z 0-9

Chi La Sow (2018) Telugu - 1080p - WEB-DL - AVC - UNTOUCHED - AAC - ESub-BWT

  • Views: 45
  • Author: stev
  • Date: 19-04-2019, 15:04
  • Category: Telugu Movies
  • Rating:
    Description of the movie:
    Chi La Sow (2018) Telugu - 1080p - WEB-DL - AVC - UNTOUCHED - AAC - ESub-BWT






    Format                                   : MPEG-4
    Format profile                           : Base Media
    Codec ID                                 : isom (isom/iso2/avc1/mp41)
    File size                                : 4.68 GiB
    Duration                                 : 2 h 10 min
    Overall bit rate mode                    : Constant
    Overall bit rate                         : 5 154 kb/s
    Writing application                      : Lavf58.25.100
    
    Video
    ID                                       : 1
    Format                                   : AVC
    Format/Info                              : Advanced Video Codec
    Format profile                           : Baseline@L4
    Format settings                          : 1 Ref Frames
    Format settings, CABAC                   : No
    Format settings, RefFrames               : 1 frame
    Codec ID                                 : avc1
    Codec ID/Info                            : Advanced Video Coding
    Duration                                 : 2 h 10 min
    Bit rate mode                            : Constant
    Bit rate                                 : 5 120 kb/s
    Width                                    : 1 920 pixels
    Height                                   : 1 080 pixels
    Display aspect ratio                     : 16:9
    Frame rate mode                          : Constant
    Frame rate                               : 25.000 FPS
    Color space                              : YUV
    Chroma subsampling                       : 4:2:0
    Bit depth                                : 8 bits
    Scan type                                : Progressive
    Bits/(Pixel*Frame)                       : 0.099
    Stream size                              : 4.56 GiB (97%)
    Language                                 : Telugu
    Codec configuration box                  : avcC
    
    Audio
    ID                                       : 2
    Format                                   : AAC LC
    Format/Info                              : Advanced Audio Codec Low Complexity
    Codec ID                                 : mp4a-40-2
    Duration                                 : 2 h 10 min
    Bit rate mode                            : Constant
    Bit rate                                 : 126 kb/s
    Channel(s)                               : 2 channels
    Channel layout                           : L R
    Sampling rate                            : 44.1 kHz
    Frame rate                               : 43.066 FPS (1024 SPF)
    Compression mode                         : Lossy
    Stream size                              : 117 MiB (2%)
    Language                                 : Telugu
    Default                                  : Yes
    Alternate group                          : 1
    
    



    Chi La Sow (2018) Telugu - 1080p - WEB-DL - AVC - UNTOUCHED - AAC - ESub-BWTChi La Sow (2018) Telugu - 1080p - WEB-DL - AVC - UNTOUCHED - AAC - ESub-BWTChi La Sow (2018) Telugu - 1080p - WEB-DL - AVC - UNTOUCHED - AAC - ESub-BWTChi La Sow (2018) Telugu - 1080p - WEB-DL - AVC - UNTOUCHED - AAC - ESub-BWTChi La Sow (2018) Telugu - 1080p - WEB-DL - AVC - UNTOUCHED - AAC - ESub-BWTChi La Sow (2018) Telugu - 1080p - WEB-DL - AVC - UNTOUCHED - AAC - ESub-BWTChi La Sow (2018) Telugu - 1080p - WEB-DL - AVC - UNTOUCHED - AAC - ESub-BWTChi La Sow (2018) Telugu - 1080p - WEB-DL - AVC - UNTOUCHED - AAC - ESub-BWT


    SINGLE DIRECT FAST LINKS

    https://www.heroupload.com/ff936d0614bffefe/Chi.La.Sow.2018.Telugu.WEB-DL.1080p.AVC.UNTOUCHED.ESub-BWT.mp4


    1GB LINKS

    
    https://www.heroupload.com/0a7bef715f3122ab/Chi.La.Sow.2018.Telugu.WEB-DL.1080p.AVC.UNTOUCHED.ESub-BWT.part1.rar
    https://www.heroupload.com/2e1721bc69a21f16/Chi.La.Sow.2018.Telugu.WEB-DL.1080p.AVC.UNTOUCHED.ESub-BWT.part2.rar
    https://www.heroupload.com/966405d62c7a5a6f/Chi.La.Sow.2018.Telugu.WEB-DL.1080p.AVC.UNTOUCHED.ESub-BWT.part3.rar
    https://www.heroupload.com/a9afc07b4eec3bd1/Chi.La.Sow.2018.Telugu.WEB-DL.1080p.AVC.UNTOUCHED.ESub-BWT.part4.rar
    https://www.heroupload.com/8bf9d61a0571bf8f/Chi.La.Sow.2018.Telugu.WEB-DL.1080p.AVC.UNTOUCHED.ESub-BWT.part5.rar



    Buy Premium From My Links & Support Me

    Comments

    Add Comment!


    Add comment

    Name:*
    E-Mail:
    Comment:
    • winkwinkedsmileam
      belayfeelfellowlaughing
      lollovenorecourse
      requestsadtonguewassat
      cryingwhatbullyangry
    Security Code: *
    reload, if the code cannot be seen