a b c d e f g h i j k l m n o p q r s t u v w x y z 0-9

Badla (2019) 720p - WEB-DL - H264 - DD5.1 - Msubs-DUS Exclusive

  • Views: 2 203
  • Author: stev
  • Date: 19-04-2019, 15:09
  • Category: Bollywood BluRay - Full HD
  • Rating:
    Description of the movie:
    Badla (2019) 720p - WEB-DL - H264 - DD5.1 - Msubs-DUS Exclusive





    ormat                                   : MPEG-4
    Format profile                           : Base Media / Version 2
    Codec ID                                 : mp42 (mp42/isom)
    File size                                : 3.76 GiB
    Duration                                 : 1 h 57 min
    Overall bit rate mode                    : Variable
    Overall bit rate                         : 4 592 kb/s
    Movie name                               : Badla
    Performer                                : Sujoy Ghosh
    Genre                                    : Drama
    Description                              : Naina Sethi is a young successful businesswoman with a perfect family. Naina's world turns topsy-
    Recorded date                            : UTC 2019-03-08 08:00:00
    Encoded date                             : UTC 2019-04-18 20:35:14
    Tagged date                              : UTC 2019-04-18 20:39:47
    Cover                                    : Yes
    
    Video
    ID                                       : 3
    Format                                   : AVC
    Format/Info                              : Advanced Video Codec
    Format profile                           : Main@L3.1
    Format settings                          : 2 Ref Frames
    Format settings, CABAC                   : No
    Format settings, RefFrames               : 2 frames
    Codec ID                                 : avc1
    Codec ID/Info                            : Advanced Video Coding
    Duration                                 : 1 h 57 min
    Bit rate                                 : 4 079 kb/s
    Width                                    : 1 280 pixels
    Height                                   : 536 pixels
    Display aspect ratio                     : 2.40:1
    Frame rate mode                          : Constant
    Frame rate                               : 24.000 FPS
    Color space                              : YUV
    Chroma subsampling                       : 4:2:0
    Bit depth                                : 8 bits
    Scan type                                : Progressive
    Bits/(Pixel*Frame)                       : 0.248
    Stream size                              : 3.34 GiB (89%)
    Language                                 : English
    Encoded date                             : UTC 2019-04-18 20:39:12
    Tagged date                              : UTC 2019-04-18 20:39:45
    Color range                              : Limited
    Color primaries                          : BT.709
    Transfer characteristics                 : BT.709
    Matrix coefficients                      : BT.709
    Codec configuration box                  : avcC
    
    Audio #1
    ID                                       : 1
    Format                                   : AAC LC
    Format/Info                              : Advanced Audio Codec Low Complexity
    Codec ID                                 : mp4a-40-2
    Duration                                 : 1 h 57 min
    Duration_LastFrame                       : -1 ms
    Bit rate mode                            : Variable
    Bit rate                                 : 124 kb/s
    Maximum bit rate                         : 220 kb/s
    Channel(s)                               : 2 channels
    Channel layout                           : L R
    Sampling rate                            : 48.0 kHz
    Frame rate                               : 46.875 FPS (1024 SPF)
    Compression mode                         : Lossy
    Stream size                              : 104 MiB (3%)
    Language                                 : Hindi
    Default                                  : Yes
    Alternate group                          : 1
    Encoded date                             : UTC 2019-04-18 20:35:15
    Tagged date                              : UTC 2019-04-18 20:38:23
    Menus                                    : 7
    
    Audio #2
    ID                                       : 2
    Format                                   : AC-3
    Format/Info                              : Audio Coding 3
    Commercial name                          : Dolby Digital
    Codec ID                                 : ac-3
    Duration                                 : 1 h 57 min
    Duration_LastFrame                       : -1 ms
    Bit rate mode                            : Constant
    Bit rate                                 : 384 kb/s
    Channel(s)                               : 6 channels
    Channel layout                           : L R C LFE Ls Rs
    Sampling rate                            : 48.0 kHz
    Frame rate                               : 31.250 FPS (1536 SPF)
    Bit depth                                : 16 bits
    Compression mode                         : Lossy
    Stream size                              : 322 MiB (8%)
    Language                                 : Hindi
    Service kind                             : Complete Main
    Default                                  : No
    Alternate group                          : 1
    Encoded date                             : UTC 2019-04-18 20:38:23
    Tagged date                              : UTC 2019-04-18 20:39:12
    
    Text #1
    ID                                       : 4
    Format                                   : Timed Text
    Muxing mode                              : sbtl
    Codec ID                                 : tx3g
    Duration                                 : 1 h 48 min
    Bit rate mode                            : Variable
    Bit rate                                 : 51 b/s
    Stream size                              : 40.2 KiB (0%)
    Language                                 : Hindi
    Default                                  : Yes
    Forced                                   : No
    Alternate group                          : 2
    Encoded date                             : UTC 2019-04-18 20:39:45
    Tagged date                              : UTC 2019-04-18 20:39:45
    
    Text #2
    ID                                       : 5
    Format                                   : Timed Text
    Muxing mode                              : sbtl
    Codec ID                                 : tx3g
    Duration                                 : 1 h 51 min
    Bit rate mode                            : Variable
    Bit rate                                 : 144 b/s
    Stream size                              : 118 KiB (0%)
    Language                                 : Arabic
    Default                                  : No
    Forced                                   : No
    Alternate group                          : 2
    Encoded date                             : UTC 2019-04-18 20:39:45
    Tagged date                              : UTC 2019-04-18 20:39:46
    
    Text #3
    ID                                       : 6
    Format                                   : Timed Text
    Muxing mode                              : sbtl
    Codec ID                                 : tx3g
    Duration                                 : 1 h 51 min
    Bit rate mode                            : Variable
    Bit rate                                 : 116 b/s
    Stream size                              : 94.5 KiB (0%)
    Language                                 : English
    Default                                  : No
    Forced                                   : No
    Alternate group                          : 2
    Encoded date                             : UTC 2019-04-18 20:39:46
    Tagged date                              : UTC 2019-04-18 20:39:46
    
    Menu
    ID                                       : 7
    Codec ID                                 : text
    Duration                                 : 1 h 57 min
    Encoded date                             : UTC 2019-04-18 20:39:47
    Tagged date                              : UTC 2019-04-18 20:39:47
    Menu For                                 : 1
    Duration_FirstFrame                      : -6580750
    Duration_LastFrame                       : -6312875
    00:00:00.000                             : फीचर प्रारंभ
    00:01:03.125                             : शीर्षक
    01:51:47.000                             : कलाकार व कर्मचारी वर्ग
    Bit rate mode                            : VBR
    
    



    Badla (2019) 720p - WEB-DL - H264 - DD5.1 - Msubs-DUS ExclusiveBadla (2019) 720p - WEB-DL - H264 - DD5.1 - Msubs-DUS ExclusiveBadla (2019) 720p - WEB-DL - H264 - DD5.1 - Msubs-DUS ExclusiveBadla (2019) 720p - WEB-DL - H264 - DD5.1 - Msubs-DUS ExclusiveBadla (2019) 720p - WEB-DL - H264 - DD5.1 - Msubs-DUS ExclusiveBadla (2019) 720p - WEB-DL - H264 - DD5.1 - Msubs-DUS ExclusiveBadla (2019) 720p - WEB-DL - H264 - DD5.1 - Msubs-DUS Exclusive



    SINGLE DIRECT FAST LINKS

    https://www.heroupload.com/ebb9ae71c7b8729c/Badla.2019.Hindi.720p.Hindi.NF.WeB.DL.H264.DDP.5.1-DUS.mp4


    1GB LINKS

    
    https://www.heroupload.com/16370bddb434c35f/Badla.2019.Hindi.720p.Hindi.NF.WeB.DL.H264.DDP.5.1-DUS.part1.rar
    https://www.heroupload.com/16442cd58e8f7d86/Badla.2019.Hindi.720p.Hindi.NF.WeB.DL.H264.DDP.5.1-DUS.part2.rar
    https://www.heroupload.com/1b4be970a8240244/Badla.2019.Hindi.720p.Hindi.NF.WeB.DL.H264.DDP.5.1-DUS.part3.rar
    https://www.heroupload.com/57f8dc290ec12df1/Badla.2019.Hindi.720p.Hindi.NF.WeB.DL.H264.DDP.5.1-DUS.part4.rar


    Buy Premium From My Links & Support Me

    Comments

    Add Comment!


    Add comment

    Name:*
    E-Mail:
    Comment:
    • winkwinkedsmileam
      belayfeelfellowlaughing
      lollovenorecourse
      requestsadtonguewassat
      cryingwhatbullyangry
    Security Code: *
    reload, if the code cannot be seen