a b c d e f g h i j k l m n o p q r s t u v w x y z 0-9

Manikarnika The Queen of Jhansi (2019) 1080p WEB-HDRip x264 DD5.1 [Hindi+Telugu+Tamil

  • Views: 236
  • Author: stev
  • Date: 21-04-2019, 01:43
  • Category: M / 2018 / Bollywood BluRay - Full HD
  • Rating:
    Description of the movie:
    Manikarnika The Queen of Jhansi (2019) 1080p WEB-HDRip x264 DD5.1 [Hindi+Telugu+Tamil





    Format                                   : Matroska
    Format version                           : Version 4
    File size                                : 2.49 GiB
    Duration                                 : 2 h 20 min
    Overall bit rate                         : 2 543 kb/s
    Encoded date                             : UTC 2019-04-20 21:51:10
    Writing application                      : mkvmerge v29.0.0 ('Like It Or Not') 32-bit
    Writing library                          : libebml v1.3.6 + libmatroska v1.4.9
    
    Video
    ID                                       : 1
    Format                                   : AVC
    Format/Info                              : Advanced Video Codec
    Format profile                           : High@L4
    Format settings                          : CABAC / 4 Ref Frames
    Format settings, CABAC                   : Yes
    Format settings, RefFrames               : 4 frames
    Codec ID                                 : V_MPEG4/ISO/AVC
    Duration                                 : 2 h 20 min
    Bit rate                                 : 2 166 kb/s
    Width                                    : 1 920 pixels
    Height                                   : 816 pixels
    Display aspect ratio                     : 2.35:1
    Frame rate mode                          : Constant
    Frame rate                               : 25.000 FPS
    Color space                              : YUV
    Chroma subsampling                       : 4:2:0
    Bit depth                                : 8 bits
    Scan type                                : Progressive
    Bits/(Pixel*Frame)                       : 0.055
    Stream size                              : 2.11 GiB (85%)
    Writing library                          : x264 core 157 r2935 545de2f
    Encoding settings                        : cabac=1 / ref=1 / deblock=1:0:0 / analyse=0x3:0x113 / me=hex / subme=2 / psy=1 / psy_rd=1.00:0.00 / mixed_ref=0 / me_range=16 / chroma_me=1 / trellis=0 / 8x8dct=1 / cqm=0 / deadzone=21,11 / fast_pskip=1 / chroma_qp_offset=0 / threads=25 / lookahead_threads=6 / sliced_threads=0 / nr=0 / decimate=1 / interlaced=0 / bluray_compat=0 / constrained_intra=0 / bframes=3 / b_pyramid=2 / b_adapt=1 / b_bias=0 / direct=1 / weightb=1 / open_gop=0 / weightp=1 / keyint=250 / keyint_min=25 / scenecut=40 / intra_refresh=0 / rc_lookahead=10 / rc=abr / mbtree=1 / bitrate=2166 / ratetol=1.0 / qcomp=0.60 / qpmin=0 / qpmax=69 / qpstep=4 / ip_ratio=1.40 / aq=1:1.00
    Language                                 : Hindi
    Default                                  : Yes
    Forced                                   : No
    
    Audio #1
    ID                                       : 2
    Format                                   : AC-3
    Format/Info                              : Audio Coding 3
    Commercial name                          : Dolby Digital
    Codec ID                                 : A_AC3
    Duration                                 : 2 h 20 min
    Bit rate mode                            : Constant
    Bit rate                                 : 128 kb/s
    Channel(s)                               : 6 channels
    Channel layout                           : L R C LFE Ls Rs
    Sampling rate                            : 44.1 kHz
    Frame rate                               : 28.711 FPS (1536 SPF)
    Bit depth                                : 16 bits
    Compression mode                         : Lossy
    Stream size                              : 129 MiB (5%)
    Language                                 : Telugu
    Service kind                             : Complete Main
    Default                                  : No
    Forced                                   : No
    
    Audio #2
    ID                                       : 3
    Format                                   : AC-3
    Format/Info                              : Audio Coding 3
    Commercial name                          : Dolby Digital
    Codec ID                                 : A_AC3
    Duration                                 : 2 h 20 min
    Bit rate mode                            : Constant
    Bit rate                                 : 128 kb/s
    Channel(s)                               : 6 channels
    Channel layout                           : L R C LFE Ls Rs
    Sampling rate                            : 44.1 kHz
    Frame rate                               : 28.711 FPS (1536 SPF)
    Bit depth                                : 16 bits
    Compression mode                         : Lossy
    Stream size                              : 129 MiB (5%)
    Language                                 : Tamil
    Service kind                             : Complete Main
    Default                                  : No
    Forced                                   : No
    
    Audio #3
    ID                                       : 4
    Format                                   : AC-3
    Format/Info                              : Audio Coding 3
    Commercial name                          : Dolby Digital
    Codec ID                                 : A_AC3
    Duration                                 : 2 h 20 min
    Bit rate mode                            : Constant
    Bit rate                                 : 128 kb/s
    Channel(s)                               : 6 channels
    Channel layout                           : L R C LFE Ls Rs
    Sampling rate                            : 48.0 kHz
    Frame rate                               : 31.250 FPS (1536 SPF)
    Bit depth                                : 16 bits
    Compression mode                         : Lossy
    Stream size                              : 129 MiB (5%)
    Language                                 : Hindi
    Service kind                             : Complete Main
    Default                                  : Yes
    Forced                                   : Yes
    
    Text
    ID                                       : 5
    Format                                   : UTF-8
    Codec ID                                 : S_TEXT/UTF8
    Codec ID/Info                            : UTF-8 Plain Text
    Duration                                 : 2 h 11 min
    Bit rate                                 : 42 b/s
    Count of elements                        : 1250
    Stream size                              : 40.9 KiB (0%)
    Language                                 : English
    Default                                  : No
    Forced                                   : No
    
    


    Manikarnika The Queen of Jhansi (2019) 1080p WEB-HDRip x264 DD5.1 [Hindi+Telugu+TamilManikarnika The Queen of Jhansi (2019) 1080p WEB-HDRip x264 DD5.1 [Hindi+Telugu+TamilManikarnika The Queen of Jhansi (2019) 1080p WEB-HDRip x264 DD5.1 [Hindi+Telugu+TamilManikarnika The Queen of Jhansi (2019) 1080p WEB-HDRip x264 DD5.1 [Hindi+Telugu+TamilManikarnika The Queen of Jhansi (2019) 1080p WEB-HDRip x264 DD5.1 [Hindi+Telugu+Tamil

    SINGLE DIRECT FAST LINKS

    
    https://www.heroupload.com/b60d33c230aa920a/Manikarnika.2018.HDRip.1080p.DD5.1.Hindi+Telugu+Tamil-BollywoodA2z.mkv





    Buy Premium From My Links & Support Me

    Comments

    Add Comment!


    Add comment

    Name:*
    E-Mail:
    Comment:
    • winkwinkedsmileam
      belayfeelfellowlaughing
      lollovenorecourse
      requestsadtonguewassat
      cryingwhatbullyangry
    Security Code: *
    reload, if the code cannot be seen