a b c d e f g h i j k l m n o p q r s t u v w x y z 0-9

Gully Boy (2019) 1080p - WEB-HDRip - AVC - DD5.1 - ESub-BollywoodA2z

  • Views: 1 297
  • Author: stev
  • Date: 21-04-2019, 02:02
  • Category: G / Bollywood BluRay - Full HD
  • Rating:
    Description of the movie:
    Gully Boy (2019) 1080p - WEB-HDRip - AVC - DD5.1 - ESub-BollywoodA2z





    ormat                                   : Matroska
    Format version                           : Version 4
    File size                                : 3.37 GiB
    Duration                                 : 2 h 34 min
    Overall bit rate                         : 3 129 kb/s
    Encoded date                             : UTC 2019-04-20 12:18:27
    Writing application                      : mkvmerge v29.0.0 ('Like It Or Not') 32-bit
    Writing library                          : libebml v1.3.6 + libmatroska v1.4.9
    
    Video
    ID                                       : 1
    Format                                   : AVC
    Format/Info                              : Advanced Video Codec
    Format profile                           : High@L4
    Format settings                          : CABAC / 4 Ref Frames
    Format settings, CABAC                   : Yes
    Format settings, RefFrames               : 4 frames
    Codec ID                                 : V_MPEG4/ISO/AVC
    Duration                                 : 2 h 34 min
    Bit rate                                 : 2 500 kb/s
    Width                                    : 1 920 pixels
    Height                                   : 872 pixels
    Display aspect ratio                     : 2.2:1
    Frame rate mode                          : Constant
    Frame rate                               : 24.000 FPS
    Color space                              : YUV
    Chroma subsampling                       : 4:2:0
    Bit depth                                : 8 bits
    Scan type                                : Progressive
    Bits/(Pixel*Frame)                       : 0.062
    Stream size                              : 2.68 GiB (79%)
    Writing library                          : x264 core 155 r2901 7d0ff22
    Encoding settings                        : cabac=1 / ref=1 / deblock=1:0:0 / analyse=0x3:0x113 / me=hex / subme=2 / psy=1 / psy_rd=1.00:0.00 / mixed_ref=0 / me_range=16 / chroma_me=1 / trellis=0 / 8x8dct=1 / cqm=0 / deadzone=21,11 / fast_pskip=1 / chroma_qp_offset=0 / threads=27 / lookahead_threads=6 / sliced_threads=0 / nr=0 / decimate=1 / interlaced=0 / bluray_compat=0 / constrained_intra=0 / bframes=3 / b_pyramid=2 / b_adapt=1 / b_bias=0 / direct=1 / weightb=1 / open_gop=0 / weightp=1 / keyint=240 / keyint_min=24 / scenecut=40 / intra_refresh=0 / rc_lookahead=10 / rc=abr / mbtree=1 / bitrate=2500 / ratetol=1.0 / qcomp=0.60 / qpmin=0 / qpmax=69 / qpstep=4 / vbv_maxrate=25000 / vbv_bufsize=31250 / nal_hrd=none / filler=0 / ip_ratio=1.40 / aq=1:1.00
    Default                                  : Yes
    Forced                                   : No
    Color range                              : Limited
    Color primaries                          : BT.709
    Transfer characteristics                 : BT.709
    Matrix coefficients                      : BT.709
    
    Audio
    ID                                       : 2
    Format                                   : E-AC-3
    Format/Info                              : Enhanced AC-3
    Commercial name                          : Dolby Digital Plus
    Codec ID                                 : A_EAC3
    Duration                                 : 2 h 34 min
    Bit rate mode                            : Constant
    Bit rate                                 : 640 kb/s
    Channel(s)                               : 6 channels
    Channel layout                           : L R C LFE Ls Rs
    Sampling rate                            : 48.0 kHz
    Frame rate                               : 31.250 FPS (1536 SPF)
    Compression mode                         : Lossy
    Stream size                              : 706 MiB (20%)
    Language                                 : Hindi
    Service kind                             : Complete Main
    Default                                  : No
    Forced                                   : No
    
    Text
    ID                                       : 3
    Format                                   : UTF-8
    Codec ID                                 : S_TEXT/UTF8
    Codec ID/Info                            : UTF-8 Plain Text
    Duration                                 : 2 h 26 min
    Bit rate                                 : 53 b/s
    Count of elements                        : 2035
    Stream size                              : 57.8 KiB (0%)
    Language                                 : English
    Default                                  : Yes
    Forced                                   : No
    
    


    Gully Boy (2019) 1080p - WEB-HDRip - AVC - DD5.1 - ESub-BollywoodA2zGully Boy (2019) 1080p - WEB-HDRip - AVC - DD5.1 - ESub-BollywoodA2zGully Boy (2019) 1080p - WEB-HDRip - AVC - DD5.1 - ESub-BollywoodA2zGully Boy (2019) 1080p - WEB-HDRip - AVC - DD5.1 - ESub-BollywoodA2zGully Boy (2019) 1080p - WEB-HDRip - AVC - DD5.1 - ESub-BollywoodA2zGully Boy (2019) 1080p - WEB-HDRip - AVC - DD5.1 - ESub-BollywoodA2zGully Boy (2019) 1080p - WEB-HDRip - AVC - DD5.1 - ESub-BollywoodA2z

    SINGLE DIRECT FAST LINKS

    
    https://www.heroupload.com/a5e99effa041e877/Gully.Boy.2019.Hindi.WEB-HD.1080p.AVC.DD5.1.ESub-BollywoodA2z.mkv




    Buy Premium From My Links & Support Me

    Comments

    Add Comment!


    Add comment

    Name:*
    E-Mail:
    Comment:
    • winkwinkedsmileam
      belayfeelfellowlaughing
      lollovenorecourse
      requestsadtonguewassat
      cryingwhatbullyangry
    Security Code: *
    reload, if the code cannot be seen