a b c d e f g h i j k l m n o p q r s t u v w x y z 0-9

Airaa (2019) 1080p HDRip x264 ESub [Dual Audio][Telugu-Line+Tamil] - TMV

  • Views: 27
  • Author: stev
  • Date: 26-04-2019, 14:39
  • Category: Telugu Movies
  • Rating:
    Description of the movie:
    Airaa (2019) 1080p HDRip x264 ESub [Dual Audio][Telugu-Line+Tamil] - TMV





    Format                                   : Matroska
    Format version                           : Version 4
    File size                                : 2.61 GiB
    Duration                                 : 2 h 11 min
    Overall bit rate mode                    : Variable
    Overall bit rate                         : 2 839 kb/s
    Encoded date                             : UTC 2019-04-26 09:44:20
    Writing application                      : mkvmerge v29.0.0 ('Like It Or Not') 32-bit
    Writing library                          : libebml v1.3.6 + libmatroska v1.4.9
    
    Video
    ID                                       : 1
    Format                                   : AVC
    Format/Info                              : Advanced Video Codec
    Format profile                           : High@L4
    Format settings                          : CABAC / 4 Ref Frames
    Format settings, CABAC                   : Yes
    Format settings, RefFrames               : 4 frames
    Codec ID                                 : V_MPEG4/ISO/AVC
    Duration                                 : 2 h 11 min
    Bit rate                                 : 2 500 kb/s
    Width                                    : 1 920 pixels
    Height                                   : 808 pixels
    Display aspect ratio                     : 2.40:1
    Frame rate mode                          : Constant
    Frame rate                               : 25.000 FPS
    Color space                              : YUV
    Chroma subsampling                       : 4:2:0
    Bit depth                                : 8 bits
    Scan type                                : Progressive
    Bits/(Pixel*Frame)                       : 0.064
    Stream size                              : 2.31 GiB (89%)
    Writing library                          : x264 core 155 r2901 7d0ff22
    Encoding settings                        : cabac=1 / ref=1 / deblock=1:0:0 / analyse=0x3:0x113 / me=hex / subme=2 / psy=1 / psy_rd=1.00:0.00 / mixed_ref=0 / me_range=16 / chroma_me=1 / trellis=0 / 8x8dct=1 / cqm=0 / deadzone=21,11 / fast_pskip=1 / chroma_qp_offset=0 / threads=25 / lookahead_threads=6 / sliced_threads=0 / nr=0 / decimate=1 / interlaced=0 / bluray_compat=0 / constrained_intra=0 / bframes=3 / b_pyramid=2 / b_adapt=1 / b_bias=0 / direct=1 / weightb=1 / open_gop=0 / weightp=1 / keyint=250 / keyint_min=25 / scenecut=40 / intra_refresh=0 / rc_lookahead=10 / rc=abr / mbtree=1 / bitrate=2500 / ratetol=1.0 / qcomp=0.60 / qpmin=0 / qpmax=69 / qpstep=4 / vbv_maxrate=25000 / vbv_bufsize=31250 / nal_hrd=none / filler=0 / ip_ratio=1.40 / aq=1:1.00
    Default                                  : Yes
    Forced                                   : No
    Color range                              : Limited
    Color primaries                          : BT.709
    Transfer characteristics                 : BT.709
    Matrix coefficients                      : BT.709
    
    Audio #1
    ID                                       : 2
    Format                                   : MPEG Audio
    Format version                           : Version 1
    Format profile                           : Layer 3
    Format settings                          : Joint stereo / MS Stereo
    Codec ID                                 : A_MPEG/L3
    Codec ID/Hint                            : MP3
    Duration                                 : 2 h 11 min
    Bit rate mode                            : Variable
    Bit rate                                 : 96.0 kb/s
    Channel(s)                               : 2 channels
    Sampling rate                            : 48.0 kHz
    Frame rate                               : 41.667 FPS (1152 SPF)
    Compression mode                         : Lossy
    Delay relative to video                  : -43 ms
    Stream size                              : 93.4 MiB (3%)
    Writing library                          : LAME3.99r
    Encoding settings                        : -m j -V 4 -q 3 -lowpass 15.1 --abr 96
    Language                                 : Telugu
    Default                                  : Yes
    Forced                                   : No
    
    Audio #2
    ID                                       : 3
    Format                                   : AC-3
    Format/Info                              : Audio Coding 3
    Commercial name                          : Dolby Digital
    Codec ID                                 : A_AC3
    Duration                                 : 2 h 11 min
    Bit rate mode                            : Constant
    Bit rate                                 : 224 kb/s
    Channel(s)                               : 6 channels
    Channel layout                           : L R C LFE Ls Rs
    Sampling rate                            : 48.0 kHz
    Frame rate                               : 31.250 FPS (1536 SPF)
    Bit depth                                : 16 bits
    Compression mode                         : Lossy
    Delay relative to video                  : -38 ms
    Stream size                              : 211 MiB (8%)
    Language                                 : Tamil
    Service kind                             : Complete Main
    Default                                  : No
    Forced                                   : No
    
    Text
    ID                                       : 4
    Format                                   : UTF-8
    Codec ID                                 : S_TEXT/UTF8
    Codec ID/Info                            : UTF-8 Plain Text
    Duration                                 : 2 h 10 min
    Bit rate                                 : 39 b/s
    Count of elements                        : 1254
    Stream size                              : 37.5 KiB (0%)
    Language                                 : English
    Default                                  : Yes
    Forced                                   : No
    
    


    Airaa (2019) 1080p HDRip x264 ESub [Dual Audio][Telugu-Line+Tamil] - TMVAiraa (2019) 1080p HDRip x264 ESub [Dual Audio][Telugu-Line+Tamil] - TMVAiraa (2019) 1080p HDRip x264 ESub [Dual Audio][Telugu-Line+Tamil] - TMVAiraa (2019) 1080p HDRip x264 ESub [Dual Audio][Telugu-Line+Tamil] - TMVAiraa (2019) 1080p HDRip x264 ESub [Dual Audio][Telugu-Line+Tamil] - TMVAiraa (2019) 1080p HDRip x264 ESub [Dual Audio][Telugu-Line+Tamil] - TMVAiraa (2019) 1080p HDRip x264 ESub [Dual Audio][Telugu-Line+Tamil] - TMVAiraa (2019) 1080p HDRip x264 ESub [Dual Audio][Telugu-Line+Tamil] - TMV

    SINGLE DIRECT FAST LINKS

    https://www.heroupload.com/94d6910d81fea0cf/Airra.2019.Proper.HDRip.1080p.x264.Telugu.HQ.Line+Tamil.DD5.1-TMV.mkv


    700MB LINKS


    
    https://www.heroupload.com/d402eba80001ae1c/Airra.2019.Proper.HDRip.1080p.x264.Telugu.HQ.Line+Tamil.DD5.1-TMV.part1.rar
    https://www.heroupload.com/ed259503632d2c58/Airra.2019.Proper.HDRip.1080p.x264.Telugu.HQ.Line+Tamil.DD5.1-TMV.part2.rar
    https://www.heroupload.com/ba7209a0dfe28f17/Airra.2019.Proper.HDRip.1080p.x264.Telugu.HQ.Line+Tamil.DD5.1-TMV.part3.rar
    https://www.heroupload.com/6325eaa6c72365b8/Airra.2019.Proper.HDRip.1080p.x264.Telugu.HQ.Line+Tamil.DD5.1-TMV.part4.rar


    Buy Premium From My Links & Support Me

    Comments

    Add Comment!


    Add comment

    Name:*
    E-Mail:
    Comment:
    • winkwinkedsmileam
      belayfeelfellowlaughing
      lollovenorecourse
      requestsadtonguewassat
      cryingwhatbullyangry
    Security Code: *
    reload, if the code cannot be seen