a b c d e f g h i j k l m n o p q r s t u v w x y z 0-9

Kodathi Samaksham Balan Vakeel (2019) Malayalam - 1080p - WEB-DL - AVC - DD5.1-BWT

  • Views: 44
  • Author: stev
  • Date: 26-04-2019, 14:49
  • Category: Malayalam Movies
  • Rating:
    Description of the movie:
    Kodathi Samaksham Balan Vakeel (2019) Malayalam - 1080p - WEB-DL - AVC - DD5.1-BWT




    Format                                   : Matroska
    Format version                           : Version 4
    File size                                : 5.59 GiB
    Duration                                 : 2 h 34 min
    Overall bit rate                         : 5 194 kb/s
    Encoded date                             : UTC 2019-04-26 10:03:08
    Writing application                      : mkvmerge v29.0.0 ('Like It Or Not') 32-bit
    Writing library                          : libebml v1.3.6 + libmatroska v1.4.9
    
    Video
    ID                                       : 1
    Format                                   : AVC
    Format/Info                              : Advanced Video Codec
    Format profile                           : Baseline@L4
    Format settings                          : 1 Ref Frames
    Format settings, CABAC                   : No
    Format settings, RefFrames               : 1 frame
    Codec ID                                 : V_MPEG4/ISO/AVC
    Duration                                 : 2 h 34 min
    Bit rate mode                            : Constant
    Bit rate                                 : 5 120 kb/s
    Width                                    : 1 920 pixels
    Height                                   : 1 080 pixels
    Display aspect ratio                     : 16:9
    Frame rate mode                          : Constant
    Frame rate                               : 25.000 FPS
    Color space                              : YUV
    Chroma subsampling                       : 4:2:0
    Bit depth                                : 8 bits
    Scan type                                : Progressive
    Bits/(Pixel*Frame)                       : 0.099
    Stream size                              : 5.45 GiB (98%)
    Language                                 : Malayalam
    Default                                  : Yes
    Forced                                   : No
    
    Audio
    ID                                       : 2
    Format                                   : AAC LC
    Format/Info                              : Advanced Audio Codec Low Complexity
    Codec ID                                 : A_AAC-2
    Duration                                 : 2 h 34 min
    Bit rate                                 : 126 kb/s
    Channel(s)                               : 2 channels
    Channel layout                           : L R
    Sampling rate                            : 44.1 kHz
    Frame rate                               : 43.066 FPS (1024 SPF)
    Compression mode                         : Lossy
    Stream size                              : 138 MiB (2%)
    Language                                 : Malayalam
    Default                                  : Yes
    Forced                                   : No
    
    



    Kodathi Samaksham Balan Vakeel (2019) Malayalam - 1080p - WEB-DL - AVC - DD5.1-BWTKodathi Samaksham Balan Vakeel (2019) Malayalam - 1080p - WEB-DL - AVC - DD5.1-BWTKodathi Samaksham Balan Vakeel (2019) Malayalam - 1080p - WEB-DL - AVC - DD5.1-BWTKodathi Samaksham Balan Vakeel (2019) Malayalam - 1080p - WEB-DL - AVC - DD5.1-BWTKodathi Samaksham Balan Vakeel (2019) Malayalam - 1080p - WEB-DL - AVC - DD5.1-BWTKodathi Samaksham Balan Vakeel (2019) Malayalam - 1080p - WEB-DL - AVC - DD5.1-BWTKodathi Samaksham Balan Vakeel (2019) Malayalam - 1080p - WEB-DL - AVC - DD5.1-BWTKodathi Samaksham Balan Vakeel (2019) Malayalam - 1080p - WEB-DL - AVC - DD5.1-BWTKodathi Samaksham Balan Vakeel (2019) Malayalam - 1080p - WEB-DL - AVC - DD5.1-BWT

    SINGLE DIRECT FAST LINKS

    https://www.heroupload.com/36947d1af5e0255f/Kodathi.Samaksham.Balan.Vakeel.2019.Malayalam.WEB-DL.1080p.AVC.UNTOUCHED.ESub-BWT.mkv


    1GB LINKS


    
    https://www.heroupload.com/ee22542b5aa0430a/Kodathi.Samaksham.Balan.Vakeel.2019.Malayalam.WEB-DL.1080p.AVC.UNTOUCHED.ESub-BWT.part1.rar
    https://www.heroupload.com/2f018bce36c0fb45/Kodathi.Samaksham.Balan.Vakeel.2019.Malayalam.WEB-DL.1080p.AVC.UNTOUCHED.ESub-BWT.part2.rar
    https://www.heroupload.com/e7a3ae128a042eb1/Kodathi.Samaksham.Balan.Vakeel.2019.Malayalam.WEB-DL.1080p.AVC.UNTOUCHED.ESub-BWT.part3.rar
    https://www.heroupload.com/8b07af5fcfd7b6a8/Kodathi.Samaksham.Balan.Vakeel.2019.Malayalam.WEB-DL.1080p.AVC.UNTOUCHED.ESub-BWT.part4.rar
    https://www.heroupload.com/7c5301d5f0d95243/Kodathi.Samaksham.Balan.Vakeel.2019.Malayalam.WEB-DL.1080p.AVC.UNTOUCHED.ESub-BWT.part5.rar
    https://www.heroupload.com/837dd145d58237fd/Kodathi.Samaksham.Balan.Vakeel.2019.Malayalam.WEB-DL.1080p.AVC.UNTOUCHED.ESub-BWT.part6.rar


    Buy Premium From My Links & Support Me

    Comments

    Add Comment!


    Add comment

    Name:*
    E-Mail:
    Comment:
    • winkwinkedsmileam
      belayfeelfellowlaughing
      lollovenorecourse
      requestsadtonguewassat
      cryingwhatbullyangry
    Security Code: *
    reload, if the code cannot be seen