a b c d e f g h i j k l m n o p q r s t u v w x y z 0-9

Why Cheat India (2019) 1080p - HDTV - AVC - AAC-BWT

  • Views: 16
  • Author: stev
  • Date: 29-04-2019, 18:43
  • Category: Bollywood BluRay - Full HD
  • Rating:
    Description of the movie:
    Why Cheat India (2019) 1080p - HDTV - AVC - AAC-BWT




    Format                      : Matroska
    Format version              : Version 4
    File size                   : 5.93 GiB
    Duration                    : 1 h 54 min
    Overall bit rate mode       : Variable
    Overall bit rate            : 7 401 kb/s
    Encoded date                : UTC 2019-04-28 09:48:43
    Writing application         : mkvmerge v32.0.0 ('Astral Progressions') 32-bit
    Writing library             : libebml v1.3.7 + libmatroska v1.5.0
    
    Video
    ID                          : 2
    Format                      : AVC
    Format/Info                 : Advanced Video Codec
    Format profile              : Main@L4.1
    Format settings             : 2 Ref Frames
    Format settings, CABAC      : No
    Format settings, Reference  : 2 frames
    Format settings, GOP        : M=3, N=30
    Codec ID                    : V_MPEG4/ISO/AVC
    Duration                    : 1 h 54 min
    Bit rate mode               : Variable
    Bit rate                    : 7 233 kb/s
    Maximum bit rate            : 7 000 kb/s
    Width                       : 1 920 pixels
    Height                      : 1 080 pixels
    Display aspect ratio        : 16:9
    Frame rate mode             : Constant
    Frame rate                  : 25.000 FPS
    Color space                 : YUV
    Chroma subsampling          : 4:2:0
    Bit depth                   : 8 bits
    Scan type                   : Progressive
    Bits/(Pixel*Frame)          : 0.140
    Stream size                 : 5.79 GiB (98%)
    Language                    : English
    Default                     : Yes
    Forced                      : No
    
    Audio
    ID                          : 1
    Format                      : AAC LC
    Format/Info                 : Advanced Audio Codec Low Complexity
    Codec ID                    : A_AAC-2
    Duration                    : 1 h 54 min
    Bit rate                    : 166 kb/s
    Channel(s)                  : 2 channels
    Channel layout              : L R
    Sampling rate               : 48.0 kHz
    Frame rate                  : 46.875 FPS (1024 SPF)
    Compression mode            : Lossy
    Delay relative to video     : 16 ms
    Stream size                 : 136 MiB (2%)
    Language                    : English
    Default                     : Yes
    Forced                      : No
    
    

    Why Cheat India (2019) 1080p - HDTV - AVC - AAC-BWTWhy Cheat India (2019) 1080p - HDTV - AVC - AAC-BWTWhy Cheat India (2019) 1080p - HDTV - AVC - AAC-BWTWhy Cheat India (2019) 1080p - HDTV - AVC - AAC-BWTWhy Cheat India (2019) 1080p - HDTV - AVC - AAC-BWTWhy Cheat India (2019) 1080p - HDTV - AVC - AAC-BWT

    SINGLE DIRECT FAST LINKS

    https://www.heroupload.com/68ca0c746b2e461e/Why.Cheat.India.2019.Hindi.HDTV.1080p.AVC.UNTOUCHED.AAC-BWT.mkv


    1GB LINKS


    
    https://www.heroupload.com/c1f9e0061d5171ce/Why.Cheat.India.2019.Hindi.HDTV.1080p.AVC.UNTOUCHED.AAC-BWT.part1.rar
    https://www.heroupload.com/bfb01c5a4e9589f4/Why.Cheat.India.2019.Hindi.HDTV.1080p.AVC.UNTOUCHED.AAC-BWT.part2.rar
    https://www.heroupload.com/d71b98ebdde6319f/Why.Cheat.India.2019.Hindi.HDTV.1080p.AVC.UNTOUCHED.AAC-BWT.part3.rar
    https://www.heroupload.com/1b564d1d725f4d0f/Why.Cheat.India.2019.Hindi.HDTV.1080p.AVC.UNTOUCHED.AAC-BWT.part4.rar
    https://www.heroupload.com/c593adf2e7709721/Why.Cheat.India.2019.Hindi.HDTV.1080p.AVC.UNTOUCHED.AAC-BWT.part5.rar
    https://www.heroupload.com/031d3a1123ad0282/Why.Cheat.India.2019.Hindi.HDTV.1080p.AVC.UNTOUCHED.AAC-BWT.part6.rar




    Buy Premium From My Links & Support Me

    Comments

    Add Comment!


    Add comment

    Name:*
    E-Mail:
    Comment:
    • winkwinkedsmileam
      belayfeelfellowlaughing
      lollovenorecourse
      requestsadtonguewassat
      cryingwhatbullyangry
    Security Code: *
    reload, if the code cannot be seen