a b c d e f g h i j k l m n o p q r s t u v w x y z 0-9

Lucifer (2019) Malayalam (Original Version) UNTOUCHED - 1080p - WEB-DL - AVC - DD5.1-BWT

  • Views: 6
  • Author: stev
  • Date: 16-05-2019, 05:02
  • Category: Malayalam Movies
  • Rating:
    Description of the movie:
    Lucifer (2019) Malayalam (Original Version) UNTOUCHED - 1080p - WEB-DL - AVC - DD5.1-BWT





    Format                      : Matroska
    Format version              : Version 4
    File size                   : 7.69 GiB
    Duration                    : 2 h 52 min
    Overall bit rate            : 6 381 kb/s
    Encoded date                : UTC 2019-05-15 19:03:31
    Writing application         : mkvmerge v33.1.0 ('Primrose') 64-bit
    Writing library             : libebml v1.3.7 + libmatroska v1.5.0
    
    Video
    ID                          : 1
    Format                      : AVC
    Format/Info                 : Advanced Video Codec
    Format profile              : High@L4
    Format settings             : CABAC / 4 Ref Frames
    Format settings, CABAC      : Yes
    Format settings, Reference  : 4 frames
    Format settings, GOP        : M=4, N=48
    Codec ID                    : V_MPEG4/ISO/AVC
    Duration                    : 2 h 52 min
    Bit rate mode               : Constant
    Bit rate                    : 5 739 kb/s
    Nominal bit rate            : 10 000 kb/s
    Width                       : 1 920 pixels
    Height                      : 1 080 pixels
    Display aspect ratio        : 16:9
    Frame rate mode             : Constant
    Frame rate                  : 24.000 FPS
    Color space                 : YUV
    Chroma subsampling          : 4:2:0
    Bit depth                   : 8 bits
    Scan type                   : Progressive
    Bits/(Pixel*Frame)          : 0.115
    Stream size                 : 6.91 GiB (90%)
    Language                    : English
    Default                     : Yes
    Forced                      : No
    Color range                 : Limited
    Color primaries             : BT.709
    Transfer characteristics    : BT.709
    Matrix coefficients         : BT.709
    
    Audio
    ID                          : 2
    Format                      : E-AC-3
    Format/Info                 : Enhanced AC-3
    Commercial name             : Dolby Digital Plus
    Codec ID                    : A_EAC3
    Duration                    : 2 h 52 min
    Bit rate mode               : Constant
    Bit rate                    : 640 kb/s
    Channel(s)                  : 6 channels
    Channel layout              : L R C LFE Ls Rs
    Sampling rate               : 48.0 kHz
    Frame rate                  : 31.250 FPS (1536 SPF)
    Compression mode            : Lossy
    Stream size                 : 789 MiB (10%)
    Title                       : Malayalam
    Language                    : Malayalam
    Service kind                : Complete Main
    Default                     : Yes
    Forced                      : No
    
    Text
    ID                          : 3
    Format                      : UTF-8
    Codec ID                    : S_TEXT/UTF8
    Codec ID/Info               : UTF-8 Plain Text
    Duration                    : 2 h 45 min
    Bit rate                    : 60 b/s
    Count of elements           : 2218
    Stream size                 : 73.2 KiB (0%)
    Title                       : English (SDH)
    Language                    : English
    Default                     : No
    Forced                      : No
    
    




    Lucifer (2019) Malayalam (Original Version) UNTOUCHED - 1080p - WEB-DL - AVC - DD5.1-BWT
    Lucifer (2019) Malayalam (Original Version) UNTOUCHED - 1080p - WEB-DL - AVC - DD5.1-BWT
    Lucifer (2019) Malayalam (Original Version) UNTOUCHED - 1080p - WEB-DL - AVC - DD5.1-BWT
    Lucifer (2019) Malayalam (Original Version) UNTOUCHED - 1080p - WEB-DL - AVC - DD5.1-BWT
    Lucifer (2019) Malayalam (Original Version) UNTOUCHED - 1080p - WEB-DL - AVC - DD5.1-BWT
    Lucifer (2019) Malayalam (Original Version) UNTOUCHED - 1080p - WEB-DL - AVC - DD5.1-BWT

    SINGLE DIRECT FAST LINKS

    https://www.heroupload.com/76ee8f9819c6fcf2/Lucifer.2019.Malayalam.Original.Version.WEB-DL.1080p.AVC.UNTOUCHED.DD5.1-BWT.mkv


    1GB LINKS


    
    https://www.heroupload.com/504a05e3addcd5f4/Lucifer.2019.Malayalam.Original.Version.WEB-DL.1080p.AVC.UNTOUCHED.DD5.1-BWT.part1.rar
    https://www.heroupload.com/a1920fd15ca155bf/Lucifer.2019.Malayalam.Original.Version.WEB-DL.1080p.AVC.UNTOUCHED.DD5.1-BWT.part2.rar
    https://www.heroupload.com/bff27acad06d1dc9/Lucifer.2019.Malayalam.Original.Version.WEB-DL.1080p.AVC.UNTOUCHED.DD5.1-BWT.part3.rar
    https://www.heroupload.com/9fedf696da0be18c/Lucifer.2019.Malayalam.Original.Version.WEB-DL.1080p.AVC.UNTOUCHED.DD5.1-BWT.part4.rar
    https://www.heroupload.com/bf2403ac0d9b151f/Lucifer.2019.Malayalam.Original.Version.WEB-DL.1080p.AVC.UNTOUCHED.DD5.1-BWT.part5.rar
    https://www.heroupload.com/f15fb79595a2db05/Lucifer.2019.Malayalam.Original.Version.WEB-DL.1080p.AVC.UNTOUCHED.DD5.1-BWT.part6.rar
    https://www.heroupload.com/788900b0f3882061/Lucifer.2019.Malayalam.Original.Version.WEB-DL.1080p.AVC.UNTOUCHED.DD5.1-BWT.part7.rar
    https://www.heroupload.com/badcbb2ea349a681/Lucifer.2019.Malayalam.Original.Version.WEB-DL.1080p.AVC.UNTOUCHED.DD5.1-BWT.part8.rar




    Buy Premium From My Links & Support Me

    Comments

    Add Comment!


    Add comment

    Name:*
    E-Mail:
    Comment:
    • winkwinkedsmileam
      belayfeelfellowlaughing
      lollovenorecourse
      requestsadtonguewassat
      cryingwhatbullyangry
    Security Code: *
    reload, if the code cannot be seen