a b c d e f g h i j k l m n o p q r s t u v w x y z 0-9

Ispade Rajavum Idhaya Raniyum (2019) Tamil - 1080p - WEB-HD - AVC - AAC - ESubs-MTR

  • Views: 7
  • Author: stev
  • Date: 17-05-2019, 02:52
  • Category: Tamil Movies
  • Rating:
    Description of the movie:
    Ispade Rajavum Idhaya Raniyum (2019) Tamil - 1080p - WEB-HD - AVC - AAC - ESubs-MTR





    Format                      : Matroska
    Format version              : Version 4
    File size                   : 1.87 GiB
    Duration                    : 2 h 23 min
    Overall bit rate            : 1 859 kb/s
    Encoded date                : UTC 2019-05-16 23:16:32
    Writing application         : mkvmerge v33.1.0 ('Primrose') 32-bit
    Writing library             : libebml v1.3.7 + libmatroska v1.5.0
    
    Video
    ID                          : 1
    Format                      : AVC
    Format/Info                 : Advanced Video Codec
    Format profile              : High@L4
    Format settings             : CABAC / 4 Ref Frames
    Format settings, CABAC      : Yes
    Format settings, Reference  : 4 frames
    Codec ID                    : V_MPEG4/ISO/AVC
    Duration                    : 2 h 23 min
    Bit rate                    : 1 800 kb/s
    Width                       : 1 920 pixels
    Height                      : 1 080 pixels
    Display aspect ratio        : 16:9
    Frame rate mode             : Constant
    Frame rate                  : 24.000 FPS
    Color space                 : YUV
    Chroma subsampling          : 4:2:0
    Bit depth                   : 8 bits
    Scan type                   : Progressive
    Bits/(Pixel*Frame)          : 0.036
    Stream size                 : 1.80 GiB (96%)
    Writing library             : x264 core 155 r2917 0a84d98
    Encoding settings           : cabac=1 / ref=4 / deblock=1:-1:-1 / analyse=0x3:0x113 / me=hex / subme=8 / psy=1 / psy_rd=1.00:0.15 / mixed_ref=1 / me_range=16 / chroma_me=1 / trellis=2 / 8x8dct=1 / cqm=0 / deadzone=21,11 / fast_pskip=1 / chroma_qp_offset=-3 / threads=24 / lookahead_threads=4 / sliced_threads=0 / nr=0 / decimate=1 / interlaced=0 / bluray_compat=0 / constrained_intra=0 / bframes=3 / b_pyramid=2 / b_adapt=2 / b_bias=0 / direct=3 / weightb=1 / open_gop=0 / weightp=2 / keyint=48 / keyint_min=25 / scenecut=0 / intra_refresh=0 / rc_lookahead=48 / rc=2pass / mbtree=1 / bitrate=1800 / ratetol=1.0 / qcomp=0.60 / qpmin=0 / qpmax=69 / qpstep=4 / cplxblur=20.0 / qblur=0.5 / vbv_maxrate=2520 / vbv_bufsize=3240 / nal_hrd=none / filler=0 / ip_ratio=1.40 / aq=1:1.00
    Default                     : Yes
    Forced                      : No
    Color range                 : Limited
    Color primaries             : BT.709
    Transfer characteristics    : BT.709
    Matrix coefficients         : BT.709
    
    Audio
    ID                          : 2
    Format                      : AAC LC
    Format/Info                 : Advanced Audio Codec Low Complexity
    Codec ID                    : A_AAC-2
    Duration                    : 2 h 23 min
    Bit rate                    : 64.2 kb/s
    Channel(s)                  : 2 channels
    Channel layout              : L R
    Sampling rate               : 48.0 kHz
    Frame rate                  : 46.875 FPS (1024 SPF)
    Compression mode            : Lossy
    Delay relative to video     : -83 ms
    Stream size                 : 66.1 MiB (3%)
    Default                     : Yes
    Forced                      : No
    
    

    Ispade Rajavum Idhaya Raniyum (2019) Tamil - 1080p - WEB-HD - AVC - AAC - ESubs-MTRIspade Rajavum Idhaya Raniyum (2019) Tamil - 1080p - WEB-HD - AVC - AAC - ESubs-MTRIspade Rajavum Idhaya Raniyum (2019) Tamil - 1080p - WEB-HD - AVC - AAC - ESubs-MTRIspade Rajavum Idhaya Raniyum (2019) Tamil - 1080p - WEB-HD - AVC - AAC - ESubs-MTR

    SINGLE DIRECT FAST LINKS

    
    https://www.heroupload.com/2e52f32d12a2b93b/Ispade.Rajavum.Idhaya.Raniyum.2019.Tamil.1080p.HD.AVC.ESubs-MTR.mkv
    https://www.heroupload.com/9d61bd25a1438690/Ispade.Rajavum.Idhaya.Raniyum.2019.Tamil.1080p.HD.AVC.ESubs-MTR.srt




    Buy Premium From My Links & Support Me

    Comments

    Add Comment!


    Add comment

    Name:*
    E-Mail:
    Comment:
    • winkwinkedsmileam
      belayfeelfellowlaughing
      lollovenorecourse
      requestsadtonguewassat
      cryingwhatbullyangry
    Security Code: *
    reload, if the code cannot be seen