a b c d e f g h i j k l m n o p q r s t u v w x y z 0-9

Nakshatram (2017) UNCUT 1080p HDRip x264 [Dual Audio][Hindi+Telugu] - DM

  • Views: 1 042
  • Author: stev
  • Date: 4-06-2019, 03:46
  • Category: South Indian Hindi Dub Movies
  • Rating:
    Description of the movie:
    Nakshatram (2017) UNCUT 1080p HDRip x264 [Dual Audio][Hindi+Telugu] - DM




    General
    Format : Matroska
    Format version : Version 4
    File size : 2.98 GiB
    Duration : 2 h 37 min
    Overall bit rate : 2 706 kb/s
    
    Video
    ID : 1
    Format : AVC
    Format/Info : Advanced Video Codec
    Format profile : High@L4
    Format settings : CABAC / 4 Ref Frames
    Format settings, CABAC : Yes
    Format settings, ReFrames : 4 frames
    Codec ID : V_MPEG4/ISO/AVC
    Duration : 2 h 37 min
    Bit rate : 2 400 kb/s
    Width : 1 920 pixels
    Height : 818 pixels
    Display aspect ratio : 2.35:1
    Frame rate mode : Constant
    Frame rate : 23.976 (24000/1001) FPS
    Color space : YUV
    Chroma subsampling : 4:2:0
    Bit depth : 8 bits
    Scan type : Progressive
    Bits/(Pixel*Frame) : 0.064
    Default : Yes
    Forced : No
    Color range : Limited
    
    Audio #1
    ID : 2
    Format : MPEG Audio
    Format version : Version 1
    Format profile : Layer 3
    Format settings : Joint stereo / MS Stereo
    Codec ID : A_MPEG/L3
    Codec ID/Hint : MP3
    Duration : 2 h 37 min
    Bit rate mode : Constant
    Bit rate : 192 kb/s
    Channel(s) : 2 channels
    Sampling rate : 44.1 kHz
    Compression mode : Lossy
    Delay relative to video : -23 ms
    Stream size : 217 MiB (7%)
    Title : DesireMoVies.Pro
    Writing library : LAME3.98.2
    Default : Yes
    Forced : Yes
    
    
    Audio #2
    ID : 3
    Format : MPEG Audio
    Format version : Version 1
    Format profile : Layer 3
    Format settings : Joint stereo / MS Stereo
    Codec ID : A_MPEG/L3
    Codec ID/Hint : MP3
    Duration : 2 h 37 min
    Bit rate mode : Constant
    Bit rate : 112 kb/s
    Channel(s) : 2 channels
    Sampling rate : 48.0 kHz
    Compression mode : Lossy
    Delay relative to video : -23 ms
    Stream size : 126 MiB (4%)
    Title : Stereo
    Writing library : LAME3.98
    Default : No
    Forced : No 



    Nakshatram (2017) UNCUT 1080p HDRip x264 [Dual Audio][Hindi+Telugu] - DM
    Nakshatram (2017) UNCUT 1080p HDRip x264 [Dual Audio][Hindi+Telugu] - DM
    Nakshatram (2017) UNCUT 1080p HDRip x264 [Dual Audio][Hindi+Telugu] - DM
    Nakshatram (2017) UNCUT 1080p HDRip x264 [Dual Audio][Hindi+Telugu] - DM
    Nakshatram (2017) UNCUT 1080p HDRip x264 [Dual Audio][Hindi+Telugu] - DM
    Nakshatram (2017) UNCUT 1080p HDRip x264 [Dual Audio][Hindi+Telugu] - DM
    Nakshatram (2017) UNCUT 1080p HDRip x264 [Dual Audio][Hindi+Telugu] - DM

    Eid Sale buy Premium with FLAT 50% Discount Now Enjoy Premium Fast Speed and Support US.


    SINGLE DIRECT FAST LINKS

    
    https://www.heroupload.com/f7ff428337bb7fde/Nakshatram.2017.UNCUT.1080p.HDRip.x264.Dual.Audio-DM.mkv
    



    Buy Premium From My Links & Support Me

    Comments

    Add Comment!


    Add comment

    Name:*
    E-Mail:
    Comment:
    • winkwinkedsmileam
      belayfeelfellowlaughing
      lollovenorecourse
      requestsadtonguewassat
      cryingwhatbullyangry
    Security Code: *
    reload, if the code cannot be seen