a b c d e f g h i j k l m n o p q r s t u v w x y z 0-9

Inttelligent (2018) 720p UNCUT HDRip x264 ESubs [Dual Audio][Hindi+Telugu] - BHD

  • Views: 15
  • Author: stev
  • Date: 4-06-2019, 03:50
  • Category: South Indian Hindi Dub Movies
  • Rating:
    Description of the movie:
    Inttelligent (2018) 720p UNCUT HDRip x264 ESubs [Dual Audio][Hindi+Telugu] - BHD





    Media
    Video
    ID : 1
    Format : AVC
    Format/Info : Advanced Video Codec
    Format profile : High@L3.1
    Format settings : CABAC / 4 Ref Frames
    Format settings, CABAC : Yes
    Format settings, RefFrames : 4 frames
    Codec ID : V_MPEG4/ISO/AVC
    Duration : 2 h 5 min
    Bit rate : 1 336 kb/s
    Width : 1 280 pixels
    Height : 544 pixels
    Display aspect ratio : 2.35:1
    Frame rate mode : Constant
    Frame rate : 25.000 FPS
    Color space : YUV
    Chroma subsampling : 4:2:0
    Bit depth : 8 bits
    Scan type : Progressive
    Bits/(Pixel*Frame) : 0.077
    Stream size : 1.17 GiB (81%)
    Writing library : x264 core 155 r2901 7d0ff22
    Default : Yes
    Forced : No
    
    Audio #1
    ID : 2
    Format : AC-3
    Format/Info : Audio Coding 3
    Codec ID : A_AC3
    Duration : 2 h 5 min
    Bit rate mode : Constant
    Bit rate : 192 kb/s
    Channel(s) : 2 channels
    Channel positions : Front: L R
    Sampling rate : 48.0 kHz
    Frame rate : 31.250 FPS (1536 SPF)
    Bit depth : 16 bits
    Compression mode : Lossy
    Stream size : 173 MiB (12%)
    Language : Hindi
    Service kind : Complete Main
    Default : Yes
    Forced : No
    
    Audio #2
    ID : 3
    Format : AC-3
    Format/Info : Audio Coding 3
    Codec ID : A_AC3
    Duration : 2 h 5 min
    Bit rate mode : Constant
    Bit rate : 128 kb/s
    Channel(s) : 6 channels
    Channel positions : Front: L C R, Side: L R, LFE
    Sampling rate : 44.1 kHz
    Frame rate : 28.711 FPS (1536 SPF)
    Bit depth : 16 bits
    Compression mode : Lossy
    Stream size : 115 MiB (8%)
    Language : Telugu
    Service kind : Complete Main
    Default : No
    Forced : No
    
    Text
    ID : 4
    Format : UTF-8
    Codec ID : S_TEXT/UTF8
    Codec ID/Info : UTF-8 Plain Text
    Duration : 2 h 1 min
    Bit rate : 78 b/s
    Count of elements : 2087
    Stream size : 70.0 KiB (0%)
    Language : English
    Default : Yes
    Forced : No 



    Inttelligent (2018) 720p UNCUT HDRip x264 ESubs [Dual Audio][Hindi+Telugu] - BHD
    Inttelligent (2018) 720p UNCUT HDRip x264 ESubs [Dual Audio][Hindi+Telugu] - BHD
    Inttelligent (2018) 720p UNCUT HDRip x264 ESubs [Dual Audio][Hindi+Telugu] - BHD
    Inttelligent (2018) 720p UNCUT HDRip x264 ESubs [Dual Audio][Hindi+Telugu] - BHD
    Inttelligent (2018) 720p UNCUT HDRip x264 ESubs [Dual Audio][Hindi+Telugu] - BHD
    Inttelligent (2018) 720p UNCUT HDRip x264 ESubs [Dual Audio][Hindi+Telugu] - BHD
    Inttelligent (2018) 720p UNCUT HDRip x264 ESubs [Dual Audio][Hindi+Telugu] - BHD


    Eid Sale buy Premium with FLAT 50% Discount Now Enjoy Premium Fast Speed and Support US.


    SINGLE DIRECT FAST LINKS


    
    https://www.heroupload.com/9ca6a845615cb30f/Inttelligent.2018.720p.UNCUT.HDRip.x264.ESubs.Dual.Audio.Hindi.DD2.0+Telugu.DD5.1-BHD.mkv





    Buy Premium From My Links & Support Me

    Comments

    Add Comment!


    Add comment

    Name:*
    E-Mail:
    Comment:
    • winkwinkedsmileam
      belayfeelfellowlaughing
      lollovenorecourse
      requestsadtonguewassat
      cryingwhatbullyangry
    Security Code: *
    reload, if the code cannot be seen