a b c d e f g h i j k l m n o p q r s t u v w x y z 0-9

The Accidental Prime Minister (2019) 1080p - WEB-DL - AVC - AAC - Esubs-BollywoodA2z

  • Views: 15
  • Author: stev
  • Date: 4-06-2019, 03:58
  • Category: Bollywood BluRay - Full HD
  • Rating:
    Description of the movie:

    The Accidental Prime Minister (2019) 1080p - WEB-DL - AVC - AAC - Esubs-BollywoodA2z





    Format                      : Matroska
    Format version              : Version 4
    File size                   : 1.54 GiB
    Duration                    : 1 h 44 min
    Overall bit rate            : 2 099 kb/s
    Encoded date                : UTC 2019-05-24 19:05:18
    Writing application         : mkvmerge v31.0.0 ('Dolores In A Shoestand') 64-bit
    Writing library             : libebml v1.3.6 + libmatroska v1.4.9
    
    Video
    ID                          : 1
    Format                      : AVC
    Format/Info                 : Advanced Video Codec
    Format profile              : High@L4
    Format settings             : CABAC / 4 Ref Frames
    Format settings, CABAC      : Yes
    Format settings, Reference  : 4 frames
    Format settings, GOP        : M=4, N=50
    Codec ID                    : V_MPEG4/ISO/AVC
    Duration                    : 1 h 44 min
    Bit rate                    : 2 002 kb/s
    Nominal bit rate            : 2 200 kb/s
    Width                       : 1 920 pixels
    Height                      : 1 080 pixels
    Display aspect ratio        : 16:9
    Frame rate mode             : Constant
    Frame rate                  : 25.000 FPS
    Color space                 : YUV
    Chroma subsampling          : 4:2:0
    Bit depth                   : 8 bits
    Scan type                   : Progressive
    Bits/(Pixel*Frame)          : 0.039
    Stream size                 : 1.47 GiB (95%)
    Writing library             : x264 core 152 r2854 e9a5903
    Encoding settings           : cabac=1 / ref=3 / deblock=1:0:0 / analyse=0x3:0x113 / me=hex / subme=7 / psy=1 / psy_rd=1.00:0.00 / mixed_ref=1 / me_range=16 / chroma_me=1 / trellis=1 / 8x8dct=1 / cqm=0 / deadzone=21,11 / fast_pskip=1 / chroma_qp_offset=-2 / threads=34 / lookahead_threads=5 / sliced_threads=0 / nr=0 / decimate=1 / interlaced=0 / bluray_compat=0 / constrained_intra=0 / bframes=3 / b_pyramid=2 / b_adapt=1 / b_bias=0 / direct=1 / weightb=1 / open_gop=0 / weightp=2 / keyint=50 / keyint_min=26 / scenecut=0 / intra_refresh=0 / rc_lookahead=40 / rc=abr / mbtree=1 / bitrate=2200 / ratetol=1.0 / qcomp=0.60 / qpmin=0 / qpmax=69 / qpstep=4 / vbv_maxrate=2860 / vbv_bufsize=3300 / nal_hrd=none / filler=0 / ip_ratio=1.40 / aq=1:1.00
    Default                     : Yes
    Forced                      : No
    
    Audio
    ID                          : 2
    Format                      : AAC LC
    Format/Info                 : Advanced Audio Codec Low Complexity
    Codec ID                    : A_AAC-2
    Duration                    : 1 h 44 min
    Bit rate                    : 96.0 kb/s
    Channel(s)                  : 2 channels
    Channel layout              : L R
    Sampling rate               : 48.0 kHz
    Frame rate                  : 46.875 FPS (1024 SPF)
    Compression mode            : Lossy
    Stream size                 : 70.9 MiB (5%)
    Default                     : Yes
    Forced                      : No
    
    Text
    ID                          : 3
    Format                      : UTF-8
    Codec ID                    : S_TEXT/UTF8
    Codec ID/Info               : UTF-8 Plain Text
    Duration                    : 1 h 39 min
    Bit rate                    : 62 b/s
    Count of elements           : 1265
    Stream size                 : 45.2 KiB (0%)
    Default                     : Yes
    Forced                      : No
    
    



    The Accidental Prime Minister (2019) 1080p - WEB-DL - AVC - AAC - Esubs-BollywoodA2z
    The Accidental Prime Minister (2019) 1080p - WEB-DL - AVC - AAC - Esubs-BollywoodA2z
    The Accidental Prime Minister (2019) 1080p - WEB-DL - AVC - AAC - Esubs-BollywoodA2z
    The Accidental Prime Minister (2019) 1080p - WEB-DL - AVC - AAC - Esubs-BollywoodA2z
    The Accidental Prime Minister (2019) 1080p - WEB-DL - AVC - AAC - Esubs-BollywoodA2z


    Eid Sale buy Premium with FLAT 50% Discount Now Enjoy Premium Fast Speed and Support US.


    SINGLE DIRECT FAST LINKS


    
    https://www.heroupload.com/c0b5c57e28a0636b/The.Accidental.Prime.Minister.2019.080p.Web-DL.x264.AAC.2.0.ESub-BollywoodA2z.mkv



    Buy Premium From My Links & Support Me

    Comments

    Add Comment!


    Add comment

    Name:*
    E-Mail:
    Comment:
    • winkwinkedsmileam
      belayfeelfellowlaughing
      lollovenorecourse
      requestsadtonguewassat
      cryingwhatbullyangry
    Security Code: *
    reload, if the code cannot be seen