a b c d e f g h i j k l m n o p q r s t u v w x y z 0-9

Ustad Hotel (2012) UNCUT 720p BluRay x264 Esubs [Dual Audio][Hindi+Malayalam] - DM

  • Views: 18
  • Author: stev
  • Date: 1-07-2019, 23:36
  • Category: South Indian Hindi Dub Movies
  • Rating:
    Description of the movie:
    Ustad Hotel (2012) UNCUT 720p BluRay x264 Esubs [Dual Audio][Hindi+Malayalam] - DM





    General
    Format                      : Matroska
    Format version              : Version 4
    File size                   : 1.51 GiB
    Duration                    : 2 h 30 min
    Overall bit rate mode       : Variable
    Overall bit rate            : 1 438 kb/s
    
    
    Video
    ID                          : 1
    Format                      : AVC
    Format/Info                 : Advanced Video Codec
    Format profile              : High@L4.1
    Format settings             : CABAC / 3 Ref Frames
    Format settings, CABAC      : Yes
    Format settings, ReFrames   : 3 frames
    Codec ID                    : V_MPEG4/ISO/AVC
    Duration                    : 2 h 30 min
    Bit rate mode               : Variable
    Bit rate                    : 1 049 kb/s
    Maximum bit rate            : 62.5 Mb/s
    Width                       : 1 280 pixels
    Height                      : 544 pixels
    Display aspect ratio        : 2.35:1
    Frame rate mode             : Constant
    Frame rate                  : 24.000 FPS
    Color space                 : YUV
    Chroma subsampling          : 4:2:0
    Bit depth                   : 8 bits
    Scan type                   : Progressive
    Bits/(Pixel*Frame)          : 0.063
    Forced                      : No
    
    Audio #1
    ID                          : 2
    Format                      : AC-3
    Format/Info                 : Audio Coding 3
    Commercial name             : Dolby Digital
    Codec ID                    : A_AC3
    Duration                    : 2 h 30 min
    Bit rate mode               : Constant
    Bit rate                    : 192 kb/s
    Channel(s)                  : 2 channels
    Channel layout              : L R
    Sampling rate               : 48.0 kHz
    Frame rate                  : 31.250 FPS (1536 SPF)
    Bit depth                   : 16 bits
    Compression mode            : Lossy
    Stream size                 : 206 MiB (13%)
    Title                       : DesireMoVies.World
    Language                    : Hindi
    Service kind                : Complete Main
    Default                     : Yes
    Forced                      : No
    
    Audio #2
    ID                          : 3
    Format                      : AAC LC SBR
    Format/Info                 : Advanced Audio Codec Low Complexity with Spectral Band Replication
    Commercial name             : HE-AAC
    Format settings             : Explicit
    Codec ID                    : A_AAC-2
    Duration                    : 2 h 30 min
    Bit rate                    : 192 kb/s
    Channel(s)                  : 6 channels
    Channel layout              : C L R Ls Rs LFE
    Sampling rate               : 48.0 kHz
    Frame rate                  : 23.438 FPS (2048 SPF)
    Compression mode            : Lossy
    Delay relative to video     : 31 ms
    Stream size                 : 210 MiB (14%)
    Title                       : DesireMoVies.World
    Language                    : Malay
    Default                     : No
    Forced                      : No
    
    Text #1
    ID                          : 4
    Format                      : UTF-8
    Codec ID                    : S_TEXT/UTF8
    Codec ID/Info               : UTF-8 Plain Text
    Duration                    : 2 h 25 min
    Bit rate                    : 44 b/s
    Count of elements           : 1435
    Stream size                 : 47.2 KiB (0%)
    Title                       : DesireMoVies.World
    Language                    : English
    Default                     : Yes
    Forced                      : No
    




    Ustad Hotel (2012) UNCUT 720p BluRay x264 Esubs [Dual Audio][Hindi+Malayalam] - DM
    Ustad Hotel (2012) UNCUT 720p BluRay x264 Esubs [Dual Audio][Hindi+Malayalam] - DM
    Ustad Hotel (2012) UNCUT 720p BluRay x264 Esubs [Dual Audio][Hindi+Malayalam] - DM
    Ustad Hotel (2012) UNCUT 720p BluRay x264 Esubs [Dual Audio][Hindi+Malayalam] - DM
    Ustad Hotel (2012) UNCUT 720p BluRay x264 Esubs [Dual Audio][Hindi+Malayalam] - DM
    Ustad Hotel (2012) UNCUT 720p BluRay x264 Esubs [Dual Audio][Hindi+Malayalam] - DM
    Ustad Hotel (2012) UNCUT 720p BluRay x264 Esubs [Dual Audio][Hindi+Malayalam] - DM
    Ustad Hotel (2012) UNCUT 720p BluRay x264 Esubs [Dual Audio][Hindi+Malayalam] - DM
    Ustad Hotel (2012) UNCUT 720p BluRay x264 Esubs [Dual Audio][Hindi+Malayalam] - DM
    Ustad Hotel (2012) UNCUT 720p BluRay x264 Esubs [Dual Audio][Hindi+Malayalam] - DM


    SINGLE DIRECT FAST LINKS


    https://www.heroupload.com/9a2f458a8ac6b218/Ustad.Hotel.2012.UNCUT.720p.BluRay.x264.Esubs.Dual.Audio-DM.mkv




    Buy Premium From My Links & Support Me

    Comments

    Add Comment!


    Add comment

    Name:*
    E-Mail:
    Comment:
    • winkwinkedsmileam
      belayfeelfellowlaughing
      lollovenorecourse
      requestsadtonguewassat
      cryingwhatbullyangry
    Security Code: *
    reload, if the code cannot be seen