a b c d e f g h i j k l m n o p q r s t u v w x y z 0-9

Thumbaa (2019) Tamil - 1080p - WEB-DL - AVC - DD5.1 - ESub-BWT

  • Views: 13
  • Author: stev
  • Date: 5-07-2019, 00:34
  • Category: Tamil Movies
  • Rating:
    Description of the movie:
    Thumbaa (2019) Tamil - 1080p - WEB-DL - AVC - DD5.1 - ESub-BWT





    Format                      : Matroska
    Format version              : Version 4
    File size                   : 5.35 GiB
    Duration                    : 1 h 51 min
    Overall bit rate            : 6 892 kb/s
    Encoded date                : UTC 2019-07-04 21:08:14
    Writing application         : mkvmerge v33.1.0 ('Primrose') 32-bit
    Writing library             : libebml v1.3.7 + libmatroska v1.5.0
    
    Video
    ID                          : 1
    Format                      : AVC
    Format/Info                 : Advanced Video Codec
    Format profile              : High@L5.2
    Format settings             : CABAC / 4 Ref Frames
    Format settings, CABAC      : Yes
    Format settings, Reference  : 4 frames
    Codec ID                    : V_MPEG4/ISO/AVC
    Duration                    : 1 h 51 min
    Bit rate                    : 6 345 kb/s
    Width                       : 1 920 pixels
    Height                      : 816 pixels
    Display aspect ratio        : 2.35:1
    Frame rate mode             : Constant
    Frame rate                  : 25.000 FPS
    Color space                 : YUV
    Chroma subsampling          : 4:2:0
    Bit depth                   : 8 bits
    Scan type                   : Progressive
    Bits/(Pixel*Frame)          : 0.162
    Stream size                 : 4.85 GiB (91%)
    Writing library             : x264 core 155 r2901 7d0ff22
    Encoding settings           : cabac=1 / ref=1 / deblock=1:0:0 / analyse=0x3:0x113 / me=hex / subme=2 / psy=1 / psy_rd=1.00:0.00 / mixed_ref=0 / me_range=16 / chroma_me=1 / trellis=0 / 8x8dct=1 / cqm=0 / deadzone=21,11 / fast_pskip=1 / chroma_qp_offset=0 / threads=25 / lookahead_threads=6 / sliced_threads=0 / nr=0 / decimate=1 / interlaced=0 / bluray_compat=0 / constrained_intra=0 / bframes=3 / b_pyramid=2 / b_adapt=1 / b_bias=0 / direct=1 / weightb=1 / open_gop=0 / weightp=1 / keyint=250 / keyint_min=25 / scenecut=40 / intra_refresh=0 / rc_lookahead=10 / rc=abr / mbtree=1 / bitrate=6345 / ratetol=1.0 / qcomp=0.60 / qpmin=0 / qpmax=69 / qpstep=4 / vbv_maxrate=300000 / vbv_bufsize=300000 / nal_hrd=none / filler=0 / ip_ratio=1.40 / aq=1:1.00
    Language                    : Tamil
    Default                     : Yes
    Forced                      : No
    Color range                 : Limited
    Color primaries             : BT.709
    Transfer characteristics    : BT.709
    Matrix coefficients         : BT.709
    
    Audio
    ID                          : 2
    Format                      : E-AC-3
    Format/Info                 : Enhanced AC-3
    Commercial name             : Dolby Digital Plus
    Codec ID                    : A_EAC3
    Duration                    : 1 h 51 min
    Bit rate mode               : Constant
    Bit rate                    : 640 kb/s
    Channel(s)                  : 6 channels
    Channel layout              : L R C LFE Ls Rs
    Sampling rate               : 48.0 kHz
    Frame rate                  : 31.250 FPS (1536 SPF)
    Compression mode            : Lossy
    Stream size                 : 509 MiB (9%)
    Language                    : Tamil
    Service kind                : Complete Main
    Default                     : Yes
    Forced                      : No
    
    

    Thumbaa (2019) Tamil - 1080p - WEB-DL - AVC - DD5.1 - ESub-BWT
    Thumbaa (2019) Tamil - 1080p - WEB-DL - AVC - DD5.1 - ESub-BWT
    Thumbaa (2019) Tamil - 1080p - WEB-DL - AVC - DD5.1 - ESub-BWT
    Thumbaa (2019) Tamil - 1080p - WEB-DL - AVC - DD5.1 - ESub-BWT
    Thumbaa (2019) Tamil - 1080p - WEB-DL - AVC - DD5.1 - ESub-BWT
    Thumbaa (2019) Tamil - 1080p - WEB-DL - AVC - DD5.1 - ESub-BWT
    Thumbaa (2019) Tamil - 1080p - WEB-DL - AVC - DD5.1 - ESub-BWT
    Thumbaa (2019) Tamil - 1080p - WEB-DL - AVC - DD5.1 - ESub-BWT
    Thumbaa (2019) Tamil - 1080p - WEB-DL - AVC - DD5.1 - ESub-BWT
    Thumbaa (2019) Tamil - 1080p - WEB-DL - AVC - DD5.1 - ESub-BWT


    SINGLE DIRECT FAST LINKS

    https://www.heroupload.com/f444275a70919fa0/Thumbaa.2019.Tamil.WEB-DL.1080p.AVC.UNTOUCHED.DD+5.1.ESub-BWT.mkv


    1GB LINKS


    
    https://www.heroupload.com/5a53924d3e821c18/Thumbaa.2019.Tamil.WEB-DL.1080p.AVC.UNTOUCHED.DD+5.1.ESub-BWT.part1.rar
    https://www.heroupload.com/729a63638d85ad11/Thumbaa.2019.Tamil.WEB-DL.1080p.AVC.UNTOUCHED.DD+5.1.ESub-BWT.part2.rar
    https://www.heroupload.com/74cb68bd4d46701f/Thumbaa.2019.Tamil.WEB-DL.1080p.AVC.UNTOUCHED.DD+5.1.ESub-BWT.part3.rar
    https://www.heroupload.com/5edceab0083509c6/Thumbaa.2019.Tamil.WEB-DL.1080p.AVC.UNTOUCHED.DD+5.1.ESub-BWT.part4.rar
    https://www.heroupload.com/7e3cd035ddbc7871/Thumbaa.2019.Tamil.WEB-DL.1080p.AVC.UNTOUCHED.DD+5.1.ESub-BWT.part5.rar
    https://www.heroupload.com/0e60a98878e1f965/Thumbaa.2019.Tamil.WEB-DL.1080p.AVC.UNTOUCHED.DD+5.1.ESub-BWT.part6.rar
    


    Buy Premium From My Links & Support Me

    Comments

    Add Comment!


    Add comment

    Name:*
    E-Mail:
    Comment:
    • winkwinkedsmileam
      belayfeelfellowlaughing
      lollovenorecourse
      requestsadtonguewassat
      cryingwhatbullyangry
    Security Code: *
    reload, if the code cannot be seen