a b c d e f g h i j k l m n o p q r s t u v w x y z 0-9

Laali Ki Shaadi Mein Laaddoo Deewana (2017) 1080p - HDTV - AVC - AAC-Team Jio Exclusi...

  • Views: 224
  • Author: stev
  • Date: 28-07-2018, 12:32
  • Category: Bollywood BluRay - Full HD
  • Rating:
    Description of the movie:
    Laali Ki Shaadi Mein Laaddoo Deewana (2017) 1080p - HDTV - AVC - AAC-Team Jio Exclusi...





    Format                      : MPEG-4
    Format profile              : Base Media
    Codec ID                    : isom (isom/iso2/avc1/mp41)
    File size                   : 4.04 GiB
    Duration                    : 2 h 41 min
    Overall bit rate mode       : Variable
    Overall bit rate            : 3 582 kb/s
    Writing application         : Lavf58.17.100
    
    Video
    ID                          : 1
    Format                      : AVC
    Format/Info                 : Advanced Video Codec
    Format profile              : High@L4.1
    Format settings, CABAC      : Yes
    Format settings, RefFrames  : 4 frames
    Codec ID                    : avc1
    Codec ID/Info               : Advanced Video Coding
    Duration                    : 2 h 41 min
    Bit rate mode               : Variable
    Bit rate                    : 3 500 kb/s
    Width                       : 1 920 pixels
    Height                      : 1 080 pixels
    Display aspect ratio        : 16:9
    Frame rate mode             : Variable
    Frame rate                  : 24.938 FPS
    Minimum frame rate          : 0.083 FPS
    Maximum frame rate          : 25.000 FPS
    Original frame rate         : 25.000 FPS
    Standard                    : Component
    Color space                 : YUV
    Chroma subsampling          : 4:2:0
    Bit depth                   : 8 bits
    Scan type                   : Progressive
    Bits/(Pixel*Frame)          : 0.068
    Stream size                 : 3.93 GiB (97%)
    Color range                 : Limited
    Color primaries             : BT.709
    Transfer characteristics    : BT.709
    Matrix coefficients         : BT.709
    
    Audio
    ID                          : 2
    Format                      : AAC
    Format/Info                 : Advanced Audio Codec
    Format profile              : LC
    Codec ID                    : 40
    Duration                    : 2 h 41 min
    Bit rate mode               : Constant
    Bit rate                    : 93.1 kb/s
    Channel(s)                  : 2 channels
    Channel positions           : Front: L R
    Sampling rate               : 48.0 kHz
    Frame rate                  : 46.875 FPS (1024 SPF)
    Compression mode            : Lossy
    Stream size                 : 108 MiB (3%)
    Default                     : Yes
    Alternate group             : 1
    
    



    Laali Ki Shaadi Mein Laaddoo Deewana (2017) 1080p - HDTV - AVC - AAC-Team Jio Exclusi...Laali Ki Shaadi Mein Laaddoo Deewana (2017) 1080p - HDTV - AVC - AAC-Team Jio Exclusi...Laali Ki Shaadi Mein Laaddoo Deewana (2017) 1080p - HDTV - AVC - AAC-Team Jio Exclusi...Laali Ki Shaadi Mein Laaddoo Deewana (2017) 1080p - HDTV - AVC - AAC-Team Jio Exclusi...Laali Ki Shaadi Mein Laaddoo Deewana (2017) 1080p - HDTV - AVC - AAC-Team Jio Exclusi...

    SINGLE DIRECT FAST LINKS
    http://www.heroupload.us/26c64bc65f36fa1e/Laali.Ki.Shaadi.Mein.Laaddoo.Deewana.2017.1080p.HDTV.AVC-Team.Jio.Exclusive.mp4


    http://filefloater.com/2zZD/Laali.Ki.Shaadi.Mein.Laaddoo.Deewana.2017.1080p.HDTV.AVC-Team.Jio.Exclusive.mp4

    1GB LINKS
    
    http://www.heroupload.us/c58c0911ab5b079c/Laali.Ki.Shaadi.Mein.Laaddoo.Deewana.2017.1080p.HDTV.AVC-Team.Jio.Exclusive.part1.rar
    http://www.heroupload.us/762740bde59a24f2/Laali.Ki.Shaadi.Mein.Laaddoo.Deewana.2017.1080p.HDTV.AVC-Team.Jio.Exclusive.part2.rar
    http://www.heroupload.us/9ac6b8f104892560/Laali.Ki.Shaadi.Mein.Laaddoo.Deewana.2017.1080p.HDTV.AVC-Team.Jio.Exclusive.part3.rar
    http://www.heroupload.us/1b148ec9e52358ab/Laali.Ki.Shaadi.Mein.Laaddoo.Deewana.2017.1080p.HDTV.AVC-Team.Jio.Exclusive.part4.rar
    http://www.heroupload.us/da6b5cf6f9991fc4/Laali.Ki.Shaadi.Mein.Laaddoo.Deewana.2017.1080p.HDTV.AVC-Team.Jio.Exclusive.part5.rar


    
    http://filefloater.com/2zZE/Laali.Ki.Shaadi.Mein.Laaddoo.Deewana.2017.1080p.HDTV.AVC-Team.Jio.Exclusive.part1.rar
    http://filefloater.com/2zZF/Laali.Ki.Shaadi.Mein.Laaddoo.Deewana.2017.1080p.HDTV.AVC-Team.Jio.Exclusive.part2.rar
    http://filefloater.com/2zZG/Laali.Ki.Shaadi.Mein.Laaddoo.Deewana.2017.1080p.HDTV.AVC-Team.Jio.Exclusive.part3.rar
    http://filefloater.com/2zZH/Laali.Ki.Shaadi.Mein.Laaddoo.Deewana.2017.1080p.HDTV.AVC-Team.Jio.Exclusive.part4.rar
    http://filefloater.com/2zZI/Laali.Ki.Shaadi.Mein.Laaddoo.Deewana.2017.1080p.HDTV.AVC-Team.Jio.Exclusive.part5.rar



    Buy Premium From My Links & Support Me

    Comments

    Add Comment!


    Add comment

    Name:*
    E-Mail:
    Comment:
    • winkwinkedsmileam
      belayfeelfellowlaughing
      lollovenorecourse
      requestsadtonguewassat
      cryingwhatbullyangry
    Security Code: *
    reload, if the code cannot be seen