a b c d e f g h i j k l m n o p q r s t u v w x y z 0-9
Sort articles by: date | rating | read | comments | title
Game of Thrones S08E02 LEAKED WEB x264-Nogroup

Game of Thrones S08E02 LEAKED WEB x264-Nogroup

Game of Thrones S08E02 LEAKED WEB x264-Nogroup

Format                      : Matroska
Format version              : Version 4
File size                   : 329 MiB
Duration                    : 54 min 58 s
Overall bit rate            : 837 kb/s
Encoded date                : UTC 2019-04-21 17:43:26
Writing application         : mkvmerge v32.0.0 ('Astral Progressions') 64-bit
Writing library             : libebml v1.3.7 + libmatroska v1.5.0

Video
ID                          : 1
Format                      : AVC
Format/Info                 : Advanced Video Codec
Format profile              : High@L3.1
Format settings             : CABAC / 4 Ref Frames
Format settings, CABAC      : Yes
Format settings, ReFrames   : 4 frames
Codec ID                    : V_MPEG4/ISO/AVC
Duration                    : 54 min 58 s
Bit rate                    : 706 kb/s
Width                       : 864 pixels
Height                      : 540 pixels
Display aspect ratio        : 16:10
Frame rate mode             : Constant
Frame rate                  : 30.000 FPS
Color space                 : YUV
Chroma subsampling          : 4:2:0
Bit depth                   : 8 bits
Scan type                   : Progressive
Bits/(Pixel*Frame)          : 0.050
Stream size                 : 278 MiB (84%)
Writing library             : x264 core 157
Encoding settings           : cabac=1 / ref=1 / deblock=1:0:0 / analyse=0x3:0x3 / me=dia / subme=1 / psy=1 / psy_rd=1.00:0.00 / mixed_ref=0 / me_range=16 / chroma_me=1 / trellis=0 / 8x8dct=1 / cqm=0 / deadzone=21,11 / fast_pskip=1 / chroma_qp_offset=0 / threads=17 / lookahead_threads=2 / sliced_threads=0 / nr=0 / decimate=1 / interlaced=0 / bluray_compat=0 / constrained_intra=0 / bframes=3 / b_pyramid=2 / b_adapt=1 / b_bias=0 / direct=1 / weightb=1 / open_gop=0 / weightp=1 / keyint=250 / keyint_min=25 / scenecut=40 / intra_refresh=0 / rc=crf / mbtree=0 / crf=23.0 / qcomp=0.60 / qpmin=0 / qpmax=69 / qpstep=4 / ip_ratio=1.40 / pb_ratio=1.30 / aq=1:1.00
Default                     : Yes
Forced                      : No

Audio
ID                          : 2
Format                      : AAC LC
Format/Info                 : Advanced Audio Codec Low Complexity
Codec ID                    : A_AAC-2
Duration                    : 54 min 58 s
Bit rate                    : 129 kb/s
Channel(s)                  : 2 channels
Channel layout              : L R
Sampling rate               : 44.1 kHz
Frame rate                  : 43.066 FPS (1024 SPF)
Compression mode            : Lossy
Delay relative to video     : 10 ms
Stream size                 : 50.5 MiB (15%)
Language                    : English
Default                     : Yes
Forced                      : No




Game of Thrones S08E02 LEAKED WEB x264-Nogroup


Game of Thrones S08E02 LEAKED WEB x264-Nogroup


Game of Thrones S08E02 LEAKED WEB x264-Nogroup


Game of Thrones S08E02 LEAKED WEB x264-Nogroup


Game of Thrones S08E02 LEAKED WEB x264-Nogroup


SINGLE DIRECT FAST LINKS


https://www.heroupload.com/a0de79de047796d5/GOT.S08E02.LEAKED.ORIGINAL.mkv


Buy Premium From My Links & Support Me